<?xml version="1.0" standalone="no"?>
<!DOCTYPE svg PUBLIC "-//W3C//DTD SVG 1.1//EN" "http://www.w3.org/Graphics/SVG/1.1/DTD/svg11.dtd" >
<svg>
<metadata>
Created by FontForge 20120731 at Tue Dec  9 23:56:14 2014
 By Orthosie Webhosting
Copyright (c) 1985, 1987, 1989, 1990, 1991, 1992, 1997, 1998, 1999 Adobe Systems Incorporated. All Rights Reserved.ITC Avant Garde Gothic is a registered trademark of International Typeface Corporation.
</metadata>
<defs>
<font id="AvantGardeLTBookRegular" horiz-adv-x="554" >
  <font-face 
    font-family="AvantGardeLTBookRegular"
    font-weight="500"
    font-stretch="normal"
    units-per-em="1000"
    panose-1="2 0 6 3 3 0 0 2 0 4"
    ascent="800"
    descent="-200"
    x-height="547"
    cap-height="740"
    bbox="-113 -222 1148 955"
    underline-thickness="50"
    underline-position="-75"
    unicode-range="U+0020-FB02"
  />
<missing-glyph horiz-adv-x="277" 
 />
    <glyph glyph-name=".notdef" horiz-adv-x="277" 
 />
    <glyph glyph-name=".null" horiz-adv-x="0" 
 />
    <glyph glyph-name="nonmarkingreturn" horiz-adv-x="277" 
 />
    <glyph glyph-name="space" unicode=" " horiz-adv-x="277" 
 />
    <glyph glyph-name="space" unicode="&#xa0;" horiz-adv-x="277" 
 />
    <glyph glyph-name="exclam" unicode="!" horiz-adv-x="295" 
d="M111 740h74v-547h-74v547zM111 126h74v-126h-74v126z" />
    <glyph glyph-name="quotedbl" unicode="&#x22;" horiz-adv-x="309" 
d="M204 444l-12 296h81l-12 -296h-57zM48 444l-12 296h81l-12 -296h-57z" />
    <glyph glyph-name="numbersign" unicode="#" 
d="M236 467l-27 -194h123l27 194h-123zM130 206h-97v67h107l26 193h-107v68h117l29 206h69l-29 -206h124l29 206h69l-29 -206h83v-67h-93l-27 -194h92v-67h-101l-29 -206h-69l29 206h-124l-29 -206h-69z" />
    <glyph glyph-name="dollar" unicode="$" 
d="M241 29q-38 4 -69.5 21.5t-54 43t-35 57t-12.5 63.5v14h74q0 -42 14 -69t34.5 -42.5t44.5 -21t44 -5.5q61 0 95.5 36t34.5 97q0 39 -15.5 64.5t-37 40.5t-45.5 22.5t-42 12.5q-20 5 -50 14.5t-58.5 29.5t-49.5 53.5t-22 85.5q0 70 40.5 119.5t109.5 61.5v84h74v-81
q51 -7 82.5 -29.5t49 -50.5t24 -57t7.5 -49h-74v4q0 23 -8 44t-23.5 37.5t-39 26t-54.5 9.5q-23 0 -44 -7.5t-36.5 -22t-24.5 -36.5t-9 -53q1 -31 13 -51t30.5 -33t41 -20.5t45.5 -13.5q18 -5 50 -16t63 -33.5t54 -60t23 -95.5q0 -32 -11 -64.5t-32 -60t-53 -46.5t-74 -23
v-99h-74v99z" />
    <glyph glyph-name="percent" unicode="%" horiz-adv-x="775" 
d="M206 0h-68l424 740h68zM81 572q0 -26 9.5 -48t25.5 -39t38 -26.5t48 -9.5q25 0 47.5 9.5t38.5 26.5t25.5 39t9.5 48q0 25 -9.5 47.5t-25.5 39.5t-38.5 26.5t-47.5 9.5q-26 0 -48 -9.5t-38 -26.5t-25.5 -39.5t-9.5 -47.5zM21 572q0 37 14.5 69.5t39 57t57.5 38.5t70 14
t70 -14t57.5 -38.5t39 -57t14.5 -69.5t-14.5 -69.5t-39 -57t-57.5 -38.5t-70 -14t-70 14t-57.5 38.5t-39 57t-14.5 69.5zM391 166q0 37 14.5 69.5t39 57t57.5 38.5t70 14t70 -14t57.5 -38.5t39 -57t14.5 -69.5t-14.5 -69.5t-39 -57t-57.5 -38.5t-70 -14t-70 14t-57.5 38.5
t-39 57t-14.5 69.5zM451 166q0 -26 9.5 -48t25.5 -39t38 -26.5t48 -9.5q25 0 47.5 9.5t38.5 26.5t25.5 39t9.5 48q0 25 -9.5 47.5t-25.5 39.5t-38.5 26.5t-47.5 9.5q-26 0 -48 -9.5t-38 -26.5t-25.5 -39.5t-9.5 -47.5z" />
    <glyph glyph-name="ampersand" unicode="&#x26;" horiz-adv-x="757" 
d="M425 590q0 18 -7.5 34.5t-21.5 29.5t-33 21t-42 8q-47 -2 -75 -30t-28 -63q1 -38 27 -68.5t57 -57.5q13 5 34 13.5t41 22.5t34 34.5t14 49.5v3v3zM280 381q-14 -5 -36.5 -16.5t-36.5 -21.5q-47 -35 -62 -68.5t-15 -64.5q0 -34 13.5 -62t35 -48t49 -31t55.5 -11
q37 0 65.5 15.5t49 38t35 48t25.5 46.5zM686 482l-137 -261l187 -182l-53 -51l-169 165q-10 -18 -27 -46.5t-43.5 -54.5t-64.5 -45t-90 -19q-53 0 -96 19.5t-73.5 51.5t-47 72.5t-16.5 82.5q0 43 14.5 77.5t38.5 61.5t55 46.5t63 34.5q-14 14 -28.5 30t-26.5 34.5t-20 41
t-8 49.5q0 35 14.5 65t39 52t57 34.5t67.5 12.5q34 0 66 -13t56.5 -36.5t39.5 -55t15 -68.5q0 -39 -17 -68.5t-40.5 -50t-48 -32.5t-38.5 -17l140 -138l108 208h83z" />
    <glyph glyph-name="quotesingle" unicode="'" horiz-adv-x="198" 
d="M71 444l-12 296h81l-12 -296h-57z" />
    <glyph glyph-name="parenleft" unicode="(" horiz-adv-x="369" 
d="M355 682q-65 -39 -109.5 -91t-72.5 -107.5t-40 -110t-12 -97.5q0 -37 10 -89.5t36.5 -109.5t71.5 -112t116 -98v-72q-52 17 -106.5 59.5t-99.5 105.5t-73.5 143t-28.5 173t28.5 173t73.5 143t99.5 105.5t106.5 59.5v-75z" />
    <glyph glyph-name="parenright" unicode=")" horiz-adv-x="369" 
d="M14 757q52 -17 106.5 -59.5t99.5 -105.5t73.5 -143t28.5 -173t-28.5 -173t-73.5 -143t-99.5 -105.5t-106.5 -59.5v72q70 43 115.5 98t72 112t36.5 109.5t10 89.5q0 43 -12 97.5t-40 110t-72.5 107.5t-109.5 91v75z" />
    <glyph glyph-name="asterisk" unicode="*" horiz-adv-x="425" 
d="M184 740h58l-2 -116l109 37l18 -55l-110 -34l68 -92l-47 -34l-67 94l-66 -93l-47 34l69 92l-109 34l18 56l109 -38z" />
    <glyph glyph-name="plus" unicode="+" horiz-adv-x="606" 
d="M337 287h218v-68h-218v-219h-68v219h-218v68h218v219h68v-219z" />
    <glyph glyph-name="comma" unicode="," horiz-adv-x="277" 
d="M102 126h74l-88 -193h-74z" />
    <glyph glyph-name="hyphen" unicode="-" horiz-adv-x="332" 
d="M302 315v-67h-272v67h272z" />
    <glyph glyph-name="hyphen" unicode="&#xad;" horiz-adv-x="332" 
d="M302 315v-67h-272v67h272z" />
    <glyph glyph-name="period" unicode="." horiz-adv-x="277" 
d="M102 126h74v-126h-74v126z" />
    <glyph glyph-name="slash" unicode="/" horiz-adv-x="437" 
d="M324 740h79l-283 -840h-76z" />
    <glyph glyph-name="zero" unicode="0" 
d="M451 469q0 2 -0.5 18t-3.5 37.5t-9.5 44.5t-18.5 41q-12 19 -29.5 33.5t-36.5 24t-38.5 14t-37.5 4.5t-37.5 -4.5t-38.5 -14t-36.5 -24t-29.5 -33.5q-12 -18 -18.5 -41t-9.5 -44.5t-3.5 -37.5t-0.5 -18v-188q0 -9 0.5 -27t3.5 -40t8.5 -43.5t15.5 -37.5q26 -41 63 -60
t83 -19t83 19t63 60q10 16 15.5 37.5t8.5 43.5t3.5 40t0.5 27v188zM525 270q0 -56 -10 -97.5t-27 -70.5q-20 -36 -47 -58t-56.5 -35t-57.5 -17.5t-50 -4.5t-50 4.5t-57.5 17.5t-56.5 35t-47 58q-17 29 -27 70.5t-10 97.5v216q0 42 7.5 76t20.5 60q17 34 42.5 59t55 41
t61 23.5t61.5 7.5t61.5 -7.5t61 -23.5t55 -41t42.5 -59q13 -26 20.5 -60t7.5 -76v-216z" />
    <glyph glyph-name="one" unicode="1" 
d="M262 673h-127v67h201v-740h-74v673z" />
    <glyph glyph-name="two" unicode="2" 
d="M40 67l260 250q32 31 58 57t44 51t28 50t10 54q0 28 -11.5 56.5t-32.5 50.5t-50.5 36t-65.5 14q-3 0 -16.5 -1t-31 -6.5t-37.5 -16.5t-36.5 -31.5t-27.5 -52t-11 -77.5h-74v2q0 72 23.5 120.5t59.5 77t77.5 40.5t77.5 12q57 0 100 -21.5t72 -55t43.5 -73t14.5 -75.5
q0 -33 -8.5 -61t-25 -56t-42.5 -56t-60 -61l-238 -227h370v-67h-470v67z" />
    <glyph glyph-name="three" unicode="3" 
d="M83 555q1 47 16.5 83.5t41 62t59 39t70.5 13.5q42 0 76.5 -15.5t59 -41.5t38 -60.5t13.5 -72.5q0 -27 -6.5 -47.5t-17 -37t-24.5 -30t-28 -24.5q41 -21 65.5 -48.5t38 -55t17.5 -52t4 -40.5q0 -55 -19.5 -99.5t-51.5 -76t-74 -48.5t-88 -17q-27 0 -66.5 9.5t-77 36.5
t-65 74.5t-30.5 124.5h74q2 -28 6.5 -51.5t19.5 -47.5q20 -34 55.5 -56.5t83.5 -22.5q32 0 61 11.5t50.5 33t34.5 53t13 72.5q0 27 -9 52.5t-25.5 46.5t-40 36.5t-51.5 22.5q-17 4 -35 5t-51 2v65q3 0 11 -0.5t14 -0.5q44 0 71 13t42 31.5t20 38t5 33.5q0 16 -5.5 36.5
t-19 38.5t-35.5 30t-55 12q-22 0 -42 -9t-35.5 -25.5t-24.5 -41t-9 -55.5h-74z" />
    <glyph glyph-name="four" unicode="4" 
d="M387 202v436h-2l-286 -436h288zM387 135h-373v67l359 538h88v-538h67v-67h-67v-135h-74v135z" />
    <glyph glyph-name="five" unicode="5" 
d="M135 740h333v-67h-274l-37 -204q18 10 49.5 22.5t76.5 12.5q52 0 97 -20t78.5 -55.5t52.5 -82.5t19 -101q0 -50 -18.5 -96.5t-51.5 -82.5t-79.5 -57.5t-101.5 -21.5q-15 0 -37.5 3t-48.5 12.5t-52.5 26t-49.5 44t-40.5 67t-24.5 93.5h74q4 -42 20.5 -75.5t40.5 -56.5
t54.5 -35t63.5 -12q39 0 72 16t56 43t36 61.5t13 70.5q0 41 -14 76.5t-38 61.5t-56 40.5t-68 14.5q-46 0 -85.5 -23t-68.5 -61l-58 21z" />
    <glyph glyph-name="six" unicode="6" 
d="M98 243q0 -31 11 -64.5t33 -61t56 -45.5t79 -18q39 0 72 15t57 41t37 60.5t13 74.5q0 39 -13 73.5t-37 60.5t-57 41.5t-72 15.5q-35 0 -67.5 -14t-57.5 -39t-39.5 -61t-14.5 -79zM381 739l-171 -251l2 -1q34 16 69 16q54 0 100 -20.5t79 -55.5t51.5 -81.5t18.5 -99.5
q0 -48 -17 -94.5t-49 -83t-79.5 -59t-107.5 -22.5q-59 0 -105.5 21t-79.5 57t-50.5 83.5t-17.5 101.5q0 32 7.5 60t20 54.5t28.5 51.5t33 51l184 272h84z" />
    <glyph glyph-name="seven" unicode="7" 
d="M415 673h-352v67h428v-67l-303 -673h-78z" />
    <glyph glyph-name="eight" unicode="8" 
d="M155 564q0 -19 8 -40t24 -39t38.5 -29.5t52.5 -11.5q26 0 48.5 10t38.5 26.5t25 38t9 45.5q0 22 -8 43.5t-23.5 39t-38 28.5t-50.5 11q-27 0 -50 -10t-39.5 -26.5t-25.5 -39t-9 -46.5zM115 218q0 -45 16.5 -76t41 -50.5t53 -28.5t53.5 -9q27 0 55 10.5t51.5 30.5
t38.5 50.5t15 69.5q0 40 -15.5 70t-39.5 50t-52.5 30t-55.5 10q-33 0 -62.5 -13t-51.5 -35t-34.5 -50t-12.5 -59zM168 413q-46 30 -66.5 69.5t-20.5 78.5q0 44 16.5 79.5t44 60.5t62.5 38.5t73 13.5q41 0 76.5 -15t62 -41t42 -61.5t15.5 -77.5q0 -6 -2.5 -23.5t-11.5 -39
t-26.5 -44t-47.5 -38.5q37 -18 62 -42.5t39.5 -51.5t20.5 -54.5t6 -49.5q0 -44 -17.5 -85.5t-49 -73t-74.5 -50.5t-94 -19q-52 0 -95.5 19t-75 50.5t-49 73t-17.5 85.5q0 27 7.5 56t23.5 56.5t39.5 50t56.5 35.5z" />
    <glyph glyph-name="nine" unicode="9" 
d="M456 496q0 31 -11 64t-33 61t-56 46t-79 18q-39 0 -72 -15t-57 -41t-37 -60.5t-13 -74.5q0 -39 13 -73.5t37 -60.5t57 -41.5t72 -15.5q35 0 67.5 14t57 39t39.5 60.5t15 79.5zM173 0l171 251l-2 1q-16 -8 -34 -12t-35 -4q-54 0 -100 20.5t-79 55.5t-51.5 81.5t-18.5 99.5
q0 48 17 94.5t49 83t79.5 59t107.5 22.5q58 0 105 -21t80 -57t50.5 -83.5t17.5 -101.5q0 -32 -7.5 -60t-20 -54.5t-28.5 -51.5t-33 -51l-184 -272h-84z" />
    <glyph glyph-name="colon" unicode=":" horiz-adv-x="277" 
d="M102 548h74v-126h-74v126zM102 126h74v-126h-74v126z" />
    <glyph glyph-name="semicolon" unicode=";" horiz-adv-x="277" 
d="M102 548h74v-126h-74v126zM102 126h74l-88 -193h-74z" />
    <glyph glyph-name="less" unicode="&#x3c;" horiz-adv-x="606" 
d="M554 446l-425 -193l425 -193v-68l-508 230v62l508 230v-68z" />
    <glyph glyph-name="equal" unicode="=" horiz-adv-x="606" 
d="M51 186h504v-68h-504v68zM555 320h-504v68h504v-68z" />
    <glyph glyph-name="greater" unicode="&#x3e;" horiz-adv-x="606" 
d="M52 60l425 193l-425 193v68l508 -230v-62l-508 -230v68z" />
    <glyph glyph-name="question" unicode="?" horiz-adv-x="591" 
d="M263 126h74v-126h-74v126zM64 508v19q0 44 18 84.5t49.5 72t74.5 50t93 18.5t92 -17.5t72 -48t46.5 -71t16.5 -85.5q0 -30 -7 -53t-20.5 -44t-33.5 -41.5t-45 -44.5q-11 -11 -25 -25.5t-26.5 -33t-21.5 -42.5t-10 -53h-74v4q0 37 11.5 68.5t27.5 56t34 43.5t32 31
q35 32 59.5 62t24.5 75q0 27 -11 53.5t-31.5 48t-49.5 34.5t-64 13q-48 0 -80.5 -21.5t-54.5 -51.5q-17 -26 -20 -52t-3 -49h-74z" />
    <glyph glyph-name="at" unicode="@" horiz-adv-x="867" 
d="M545 394q0 52 -28.5 82t-70.5 30q-31 0 -56.5 -13.5t-44 -36.5t-29 -53.5t-10.5 -64.5q0 -63 31 -94.5t76 -31.5h1q32 0 56.5 16t41 41.5t25 58t8.5 66.5zM641 548l-42 -237q-4 -19 -6.5 -32.5t-2.5 -20.5v-5q0 -17 8.5 -29t25.5 -12q24 0 45.5 16.5t38 45t26 67
t9.5 82.5q0 68 -23.5 119.5t-63.5 86t-93 51.5t-111 17q-71 0 -131 -24.5t-103.5 -68.5t-68 -104t-24.5 -131q0 -54 17 -111.5t56 -105.5t104 -78.5t161 -30.5q45 0 82.5 5.5t67.5 13.5t52 16.5t36 14.5l15 -51q-60 -28 -123.5 -41.5t-129.5 -13.5q-108 0 -184 34.5
t-123.5 89.5t-69 123t-21.5 136q3 85 33 154.5t81 119.5t120.5 78t151.5 31q75 0 139.5 -22.5t111.5 -65t74 -103.5t27 -138q0 -54 -14.5 -103t-39.5 -85.5t-57.5 -58t-69.5 -21.5q-10 0 -23 3t-25 12t-21.5 24.5t-10.5 40.5h-2q-17 -29 -37 -45t-39 -23.5t-35.5 -9.5
t-26.5 -2q-33 0 -61.5 12.5t-49.5 36t-33 57t-12 74.5q0 43 14 83.5t39.5 72t61.5 51t80 19.5q35 0 57.5 -10.5t36.5 -24.5t20.5 -29.5t9.5 -24.5h2l14 75h60z" />
    <glyph glyph-name="A" unicode="A" horiz-adv-x="740" 
d="M225 316h287l-142 340zM328 740h83l318 -740h-81l-107 249h-344l-108 -249h-77z" />
    <glyph glyph-name="B" unicode="B" horiz-adv-x="574" 
d="M148 421h93q44 0 72 3.5t55 17.5q26 14 43 42.5t17 61.5q0 26 -8.5 45t-22.5 36q-22 25 -57.5 35.5t-92.5 10.5h-99v-252zM148 67h104q47 0 78.5 3.5t61.5 15.5q35 14 56.5 49t21.5 77q0 43 -25 77t-62 48q-13 5 -26 8.5t-29.5 5.5t-37.5 2.5t-51 0.5h-91v-287zM74 740
h186q58 0 98.5 -12.5t67.5 -32t42.5 -43t23 -45t9 -39.5t1.5 -25q0 -33 -9 -57t-22 -42t-26.5 -30t-23.5 -20q56 -23 89.5 -70.5t33.5 -111.5q0 -54 -23 -99.5t-62 -71.5q-22 -13 -42 -21t-41.5 -12.5t-45.5 -6t-52 -1.5h-204v740z" />
    <glyph glyph-name="C" unicode="C" horiz-adv-x="813" 
d="M771 194q-30 -54 -70 -93.5t-85.5 -64.5t-93 -37t-92.5 -12q-78 0 -148 29t-123 80t-84.5 121t-31.5 152t30.5 152t83 121.5t123 80.5t149.5 29q71 0 129 -22t101 -53.5t70.5 -66t38.5 -60.5h-83q-30 45 -68 72t-74 41t-67 18t-48 4q-65 0 -121.5 -26.5t-98.5 -70.5
t-66.5 -101t-24.5 -119q0 -65 26 -122t69.5 -100t100 -67.5t116.5 -24.5q14 0 42 3t63.5 16.5t75.5 41.5t78 79h83z" />
    <glyph glyph-name="D" unicode="D" horiz-adv-x="744" 
d="M148 67h107q25 0 56 1t64.5 6.5t67.5 17.5t66 35q17 14 37 36t37.5 52t29.5 69t12 87q0 74 -34 138.5t-92 106.5q-25 16 -51 27t-55 17.5t-63 9.5t-75 3h-107v-606zM74 740h216q69 0 132.5 -16t108.5 -45q49 -30 81 -70t51.5 -82.5t27.5 -84t8 -74.5q0 -26 -6.5 -64.5
t-24.5 -81t-51 -85t-86 -76.5q-45 -29 -108.5 -45t-132.5 -16h-216v740z" />
    <glyph glyph-name="E" unicode="E" horiz-adv-x="536" 
d="M70 740h405v-67h-331v-266h320v-67h-320v-273h331v-67h-405v740z" />
    <glyph glyph-name="F" unicode="F" horiz-adv-x="485" 
d="M70 740h374v-67h-300v-268h289v-67h-289v-338h-74v740z" />
    <glyph glyph-name="G" unicode="G" horiz-adv-x="872" 
d="M828 340q-6 -83 -42.5 -148t-91 -111t-122 -70t-135.5 -24q-83 0 -155.5 31t-126 84t-84.5 122t-31 146q0 72 28.5 141t80.5 122.5t125 86.5t162 33q73 0 133 -22.5t104.5 -54.5t73 -68.5t39.5 -64.5h-86q-16 27 -41.5 53t-59.5 46t-75 32t-87 12q-70 0 -129.5 -26.5
t-102.5 -70.5t-67 -101t-24 -119t24 -119t67.5 -100.5t103.5 -69.5t131 -26q59 0 109.5 19.5t89.5 51t64.5 70.5t35.5 78h-413v67h502z" />
    <glyph glyph-name="H" unicode="H" horiz-adv-x="683" 
d="M76 740h74v-326h383v326h74v-740h-74v347h-383v-347h-74v740z" />
    <glyph glyph-name="I" unicode="I" horiz-adv-x="226" 
d="M76 740h74v-740h-74v740z" />
    <glyph glyph-name="J" unicode="J" horiz-adv-x="482" 
d="M402 235q-1 -45 -3.5 -76t-15.5 -65q-24 -51 -70 -79t-106 -28q-34 0 -68.5 11t-63 34t-47.5 58.5t-22 85.5h73q5 -60 43 -91t86 -31q45 0 69 18.5t35.5 45.5t13.5 57.5t2 56.5v508h74v-505z" />
    <glyph glyph-name="K" unicode="K" horiz-adv-x="591" 
d="M81 740h74v-425h2l339 425h95l-293 -361l293 -379h-93l-247 321l-96 -118v-203h-74v740z" />
    <glyph glyph-name="L" unicode="L" horiz-adv-x="462" 
d="M82 740h74v-673h306v-67h-380v740z" />
    <glyph glyph-name="M" unicode="M" horiz-adv-x="919" 
d="M76 740h114l269 -630l270 630h114v-740h-74v659h-2l-277 -659h-63l-275 659h-2v-659h-74v740z" />
    <glyph glyph-name="N" unicode="N" horiz-adv-x="740" 
d="M75 740h100l413 -614h2v614h74v-740h-74l-439 651h-2v-651h-74v740z" />
    <glyph glyph-name="O" unicode="O" horiz-adv-x="869" 
d="M117 366q0 -63 25.5 -120t68.5 -99.5t100.5 -67.5t122.5 -25q64 0 122 24.5t101.5 67t69 100t25.5 123.5q0 65 -25 122.5t-68.5 101t-101 68.5t-123.5 25q-63 0 -120 -24t-101 -67t-70 -101.5t-26 -127.5zM43 366q0 87 33.5 158.5t88 122.5t125 78.5t144.5 27.5
q78 0 149 -29t125 -80.5t86 -121.5t32 -152t-32 -152t-86 -121.5t-125 -80.5t-149 -29q-79 0 -150 30t-124.5 81.5t-85 120.5t-31.5 147z" />
    <glyph glyph-name="P" unicode="P" horiz-adv-x="592" 
d="M149 365h107q30 0 50.5 0.5t37 2t30.5 5.5t30 11q44 20 65 56.5t21 78.5t-21 78.5t-65 56.5q-16 7 -30 11t-30.5 5.5t-37 2t-50.5 0.5h-107v-308zM75 740h206q38 0 67 -3t51.5 -8.5t40 -13.5t32.5 -18q42 -28 67 -73.5t25 -104.5t-25 -104.5t-67 -73.5q-15 -10 -32.5 -18
t-40 -13.5t-51.5 -8.5t-67 -3h-132v-298h-74v740z" />
    <glyph glyph-name="Q" unicode="Q" horiz-adv-x="871" 
d="M127 279q22 7 59.5 16t96.5 9q69 0 124 -14.5t100 -37.5t82.5 -52t71.5 -58q55 54 78.5 111.5t23.5 112.5q0 69 -26.5 128t-70.5 101.5t-103 66.5t-123 24q-62 0 -120.5 -22.5t-104 -64.5t-73.5 -102t-28 -134q0 -28 4 -47.5t9 -36.5zM157 216q7 -15 27.5 -42t55.5 -53.5
t84.5 -46.5t115.5 -20q7 0 24 0.5t39.5 5t48.5 14.5t51 28q-5 4 -19 15t-30 23t-31 22.5t-21 14.5q-36 22 -74.5 34.5t-71 18t-55.5 6.5t-29 1q-46 0 -70.5 -6.5t-44.5 -14.5zM825 -13q-35 0 -59.5 5t-43 14t-33 20.5t-29.5 24.5q-36 -24 -72 -37t-66.5 -19t-53 -7t-30.5 -1
q-83 0 -155.5 30t-126.5 82t-85 121t-31 147q0 73 27.5 142.5t79 123.5t125.5 87t167 33q85 0 158 -30t126.5 -82t83.5 -123.5t30 -153.5q0 -74 -30 -143t-92 -127q17 -14 31.5 -22t27.5 -12t25.5 -5t25.5 -1v-67z" />
    <glyph glyph-name="R" unicode="R" horiz-adv-x="607" 
d="M70 740h188q37 0 65.5 -2t50 -6t37.5 -9t29 -11q63 -29 97.5 -85.5t34.5 -125.5q0 -40 -14.5 -79t-42 -70.5t-68.5 -52t-95 -23.5l209 -276h-93l-251 335q35 0 59.5 0.5t42.5 1.5t31.5 3t25.5 6q30 9 53 25t38.5 37t23 45.5t7.5 49.5q0 22 -6 43.5t-16.5 40.5t-25.5 34
t-33 24q-33 17 -65 22.5t-79 5.5h-129v-673h-74v740z" />
    <glyph glyph-name="S" unicode="S" horiz-adv-x="498" 
d="M96 207q3 -70 44 -111.5t110 -41.5q29 0 56 10.5t47.5 30t33 46.5t12.5 60q0 43 -19 71t-45 45.5t-54 26.5t-47 15q-25 7 -58 18t-63 32t-50.5 55.5t-20.5 89.5q0 43 16 79.5t44 63t66 41.5t82 15q45 0 83 -16t65 -44t42 -64.5t15 -76.5h-74q0 28 -10.5 52.5t-28.5 42.5
t-42 28.5t-50 10.5q-32 0 -57 -11t-42 -29.5t-26 -41.5t-9 -47q0 -34 14 -56t38 -37t56 -25.5t68 -20.5q67 -18 104 -50t54 -65.5t20 -61t3 -36.5v-1q0 -43 -16.5 -82t-46 -69t-70.5 -48t-90 -18q-36 0 -75.5 11.5t-73 37.5t-56 68t-23.5 103h74z" />
    <glyph glyph-name="T" unicode="T" horiz-adv-x="426" 
d="M176 673h-170v67h413v-67h-169v-673h-74v673z" />
    <glyph glyph-name="U" unicode="U" horiz-adv-x="655" 
d="M149 740v-461q0 -41 6 -76t19 -58q17 -31 38 -49t42 -27.5t40.5 -12t32.5 -2.5t32.5 2.5t40.5 12t42 27.5t38 49q13 23 19 58t6 76v461h74v-461q0 -93 -28 -154q-19 -42 -47 -68.5t-58.5 -42t-61.5 -21.5t-57 -6t-57 6t-62 21.5t-58.5 42t-46.5 68.5q-28 61 -28 154v461
h74z" />
    <glyph glyph-name="V" unicode="V" horiz-adv-x="702" 
d="M8 740h82l261 -648l262 648h80l-307 -740h-73z" />
    <glyph glyph-name="W" unicode="W" horiz-adv-x="960" 
d="M11 740h76l181 -645h2l176 645h69l177 -644h2l181 644h75l-212 -740h-94l-163 607h-2l-162 -607h-95z" />
    <glyph glyph-name="X" unicode="X" horiz-adv-x="609" 
d="M259 378l-237 362h87l197 -296l195 296h86l-238 -362l253 -378h-88l-208 316l-211 -316h-87z" />
    <glyph glyph-name="Y" unicode="Y" horiz-adv-x="592" 
d="M258 247l-257 493h82l211 -415l217 415h81l-260 -493v-247h-74v247z" />
    <glyph glyph-name="Z" unicode="Z" horiz-adv-x="480" 
d="M12 67l364 606h-353v67h436v-67l-363 -606h374v-67h-458v67z" />
    <glyph glyph-name="bracketleft" unicode="[" horiz-adv-x="351" 
d="M337 -179q-30 8 -65.5 26.5t-66 51t-51.5 81t-21 117.5v378q0 51 12 90.5t30.5 69.5t42 51t46 35t42 21.5t31.5 10.5v-75q-28 -12 -51.5 -29t-41 -41.5t-27.5 -57t-10 -75.5v-365q0 -27 3 -56t16 -57.5t39 -54t72 -46.5v-75z" />
    <glyph glyph-name="backslash" unicode="\" horiz-adv-x="605" 
d="M477 -100h-76l-283 840h79z" />
    <glyph glyph-name="bracketright" unicode="]" horiz-adv-x="351" 
d="M14 -104q46 21 72 46.5t39 54t16 57.5t3 56v365q0 43 -10 75.5t-27.5 57t-41 41.5t-51.5 29v75q11 -3 31 -10.5t42.5 -21.5t45.5 -35t42 -51t31 -69.5t12 -90.5v-378q0 -69 -21 -117.5t-51.5 -81t-66 -51t-65.5 -26.5v75z" />
    <glyph glyph-name="asciicircum" unicode="^" horiz-adv-x="606" 
d="M271 740h64l218 -433h-70l-181 360l-178 -360h-71z" />
    <glyph glyph-name="underscore" unicode="_" horiz-adv-x="500" 
d="M500 -75v-50h-500v50h500z" />
    <glyph glyph-name="grave" unicode="`" horiz-adv-x="378" 
d="M300 677l-33 -58l-198 107l32 60z" />
    <glyph glyph-name="a" unicode="a" horiz-adv-x="683" 
d="M112 272q0 -46 16 -86.5t45.5 -70.5t71 -47.5t91.5 -17.5q44 0 84 17t70 46.5t47.5 70.5t17.5 89q0 45 -16.5 86t-46 71.5t-69.5 49t-87 18.5q-45 0 -85.5 -16t-71.5 -45t-49 -71t-18 -94zM621 0h-70v96h-2q-23 -34 -51 -55t-57 -33t-56.5 -16.5t-48.5 -4.5
q-65 0 -119 23t-93 62t-60.5 91.5t-21.5 111.5q0 55 21 106.5t59 91.5t92.5 64t121.5 24q22 0 50 -4.5t57 -16.5t56.5 -33.5t49.5 -55.5h2v96h70v-547z" />
    <glyph glyph-name="b" unicode="b" horiz-adv-x="682" 
d="M577 272q0 52 -18 94t-49 71t-71.5 45t-85.5 16q-47 0 -87.5 -18.5t-69.5 -49t-45.5 -71.5t-16.5 -86q0 -48 17.5 -89t47.5 -70.5t70 -46.5t84 -17q50 0 91.5 17.5t71 47.5t45.5 70.5t16 86.5zM68 740h70v-289h2q23 33 51 54.5t56.5 34t56 17t49.5 4.5q67 0 121.5 -24
t92.5 -64t59 -91.5t21 -106.5q0 -59 -22 -111.5t-61 -91.5t-93 -62t-118 -23q-21 0 -48.5 4.5t-56.5 16.5t-57 33.5t-51 54.5h-2v-96h-70v740z" />
    <glyph glyph-name="c" unicode="c" horiz-adv-x="647" 
d="M607 161q-13 -26 -34 -56t-53.5 -56.5t-78 -44t-106.5 -17.5q-64 0 -118 23t-93 62.5t-61 91.5t-22 109q0 59 23 111.5t63 91.5t93.5 62t114.5 23q36 0 75.5 -9.5t76.5 -31t68.5 -55.5t51.5 -83h-77q-17 31 -39.5 53t-48 36t-52.5 20.5t-53 6.5q-40 0 -80.5 -14.5
t-72.5 -43t-52.5 -70t-20.5 -95.5q0 -46 17 -87t47 -71.5t71.5 -48.5t90.5 -18q43 0 75.5 11.5t55.5 28.5t38.5 36t23.5 35h77z" />
    <glyph glyph-name="d" unicode="d" horiz-adv-x="685" 
d="M109 272q0 -46 16 -86.5t45.5 -70.5t71 -47.5t91.5 -17.5q44 0 84 17t70 46.5t47.5 70.5t17.5 89q0 45 -16.5 86t-46 71.5t-69.5 49t-87 18.5q-45 0 -85.5 -16t-71.5 -45t-49 -71t-18 -94zM618 0h-70v96h-2q-22 -33 -49.5 -54t-57 -33t-57 -17t-49.5 -5q-65 0 -119 23
t-93 62t-60.5 91.5t-21.5 111.5q0 55 21 106.5t59 91.5t92.5 64t121.5 24q22 0 50 -5t57 -17t56.5 -33t49.5 -53h2v287h70v-740z" />
    <glyph glyph-name="e" unicode="e" horiz-adv-x="650" 
d="M537 311q-8 48 -30.5 83.5t-52.5 58.5t-64 34t-67 11q-32 0 -66.5 -11t-64.5 -34t-52.5 -58.5t-29.5 -83.5h427zM110 248q2 -40 20 -76t47.5 -63t67 -43t77.5 -16q37 1 69 11.5t57 28t43 40.5t27 49h74q-14 -41 -40 -76t-61.5 -61t-78 -40.5t-89.5 -14.5q-57 0 -109 22
t-91 60.5t-62 90.5t-23 113q0 58 22 110t60.5 91t90 62.5t111.5 24.5q45 0 83.5 -12.5t69 -32.5t53.5 -45t38 -50q24 -39 33.5 -78t9.5 -75q0 -5 -0.5 -10t-0.5 -10h-498z" />
    <glyph glyph-name="f" unicode="f" horiz-adv-x="314" 
d="M104 484h-85v63h85q1 19 2.5 41.5t8 45t19.5 44t36 38t58 26.5t86 11v-65q-52 0 -80 -14t-41.5 -35t-16 -45t-2.5 -43v-4h140v-63h-140v-484h-70v484z" />
    <glyph glyph-name="g" unicode="g" horiz-adv-x="673" 
d="M107 273q0 -45 16.5 -85t45 -71t68 -49t86.5 -18q54 0 95 22t68 55t40.5 72t13.5 74q0 45 -16.5 86t-46 71.5t-69 49t-85.5 18.5q-47 0 -86.5 -18.5t-68 -49t-45 -71.5t-16.5 -86zM606 86q0 -22 -1 -46.5t-5.5 -50.5t-14.5 -52t-29 -51q-26 -36 -60 -56.5t-66 -30
t-57.5 -12t-33.5 -2.5q-29 0 -69.5 7.5t-81 29t-75.5 61t-54 103.5h74q7 -17 21 -40.5t38.5 -45.5t60 -37t85.5 -15q34 0 69.5 10.5t64 34.5t46.5 63t18 96v48h-2q-15 -29 -39 -50.5t-52 -35.5t-59 -20.5t-61 -6.5q-54 0 -105.5 20t-91.5 57.5t-64.5 89.5t-24.5 117
t24.5 118.5t64.5 91.5t91.5 59t105.5 21q19 0 45.5 -4t55.5 -16t57.5 -34t52.5 -58h2v98h70v-461z" />
    <glyph glyph-name="h" unicode="h" horiz-adv-x="610" 
d="M62 740h70v-263h2q8 12 22 27t35 27.5t48.5 21t62.5 8.5q51 0 93 -14.5t80 -52.5q31 -30 49.5 -77.5t18.5 -115.5v-301h-70v301q0 54 -14.5 91t-37.5 59q-29 28 -62.5 37.5t-56.5 9.5t-56.5 -9.5t-62.5 -37.5q-22 -21 -36.5 -57.5t-14.5 -87.5v-306h-70v740z" />
    <glyph glyph-name="i" unicode="i" horiz-adv-x="200" 
d="M65 740h70v-126h-70v126zM65 547h70v-547h-70v547z" />
    <glyph glyph-name="j" unicode="j" horiz-adv-x="203" 
d="M67 740h70v-126h-70v126zM137 38q0 -25 -1 -49.5t-6.5 -48.5t-18 -46t-34.5 -42q-18 -16 -35 -24.5t-32 -13t-28.5 -5.5t-25.5 -1v69q34 1 56 13t34 33t16.5 50.5t4.5 64.5v509h70v-509z" />
    <glyph glyph-name="k" unicode="k" horiz-adv-x="502" 
d="M70 740h70v-527h2l255 334h90l-216 -276l227 -271h-90l-180 216l-88 -112v-104h-70v740z" />
    <glyph glyph-name="l" unicode="l" horiz-adv-x="200" 
d="M65 740h70v-740h-70v740z" />
    <glyph glyph-name="m" unicode="m" horiz-adv-x="938" 
d="M136 484q23 37 62 57t87 20q60 0 107.5 -27t76.5 -78q65 105 184 105q48 0 88.5 -16.5t69.5 -47t45 -74t16 -98.5v-325h-70v317q0 88 -39.5 134.5t-109.5 46.5t-109.5 -46.5t-39.5 -134.5v-317h-70v317q0 88 -39.5 134.5t-109.5 46.5t-109.5 -46.5t-39.5 -134.5v-317h-70
v547h70v-63z" />
    <glyph glyph-name="n" unicode="n" horiz-adv-x="610" 
d="M65 547h70v-70h2q8 12 22 27t35 27.5t48.5 21t62.5 8.5q51 0 93 -14.5t80 -52.5q31 -30 49.5 -77.5t18.5 -115.5v-301h-70v301q0 54 -14.5 91t-37.5 59q-29 28 -62.5 37.5t-56.5 9.5t-56.5 -9.5t-62.5 -37.5q-22 -21 -36.5 -57.5t-14.5 -87.5v-306h-70v547z" />
    <glyph glyph-name="o" unicode="o" horiz-adv-x="655" 
d="M112 271q0 -48 18 -88.5t48 -70t69 -46t81 -16.5q40 0 78.5 15.5t69 44.5t49.5 71t19 96t-20.5 95.5t-52 69t-70 42t-73.5 14.5q-38 0 -76 -15t-69.5 -44t-51 -71.5t-19.5 -96.5zM42 270q0 65 24.5 118.5t64 92t91 59.5t105.5 21q61 0 113.5 -24t91 -63.5t60.5 -91.5
t22 -108t-22 -108t-60 -91.5t-91 -63.5t-114 -24q-60 0 -112 23.5t-90.5 62.5t-60.5 90t-22 107z" />
    <glyph glyph-name="p" unicode="p" horiz-adv-x="682" 
d="M573 272q0 52 -18 94t-49 71t-71.5 45t-85.5 16q-47 0 -87.5 -18.5t-69.5 -49t-45.5 -71.5t-16.5 -86q0 -48 17.5 -89t47.5 -70.5t70 -46.5t84 -17q50 0 91.5 17.5t71 47.5t45.5 70.5t16 86.5zM64 547h70v-96h2q24 34 51.5 55.5t56 33.5t56 16.5t49.5 4.5q67 0 121.5 -24
t92.5 -64t59 -91.5t21 -106.5q0 -59 -22 -111.5t-61 -91.5t-93 -62t-118 -23q-21 0 -48.5 4.5t-56.5 16.5t-57 33.5t-51 54.5h-2v-288h-70v739z" />
    <glyph glyph-name="q" unicode="q" horiz-adv-x="682" 
d="M107 272q0 -46 16 -86.5t45.5 -70.5t71 -47.5t91.5 -17.5q44 0 84 17t70 46.5t47.5 70.5t17.5 89q0 45 -16.5 86t-46 71.5t-69.5 49t-87 18.5q-45 0 -85.5 -16t-71.5 -45t-49 -71t-18 -94zM616 -192h-70v288h-2q-22 -34 -50 -55t-57 -33t-57 -16.5t-49 -4.5
q-65 0 -119 23t-93 62t-60.5 91.5t-21.5 111.5q0 55 21 106.5t59 91.5t92.5 64t121.5 24q22 0 50 -4.5t57 -16.5t56.5 -33.5t49.5 -55.5h2v96h70v-739z" />
    <glyph glyph-name="r" unicode="r" horiz-adv-x="301" 
d="M65 547h70v-79h2q12 29 29.5 46.5t37.5 27.5t42.5 13.5t44.5 5.5v-74q-37 -3 -67.5 -16.5t-50.5 -37.5q-18 -23 -28 -51.5t-10 -61.5v-320h-70v547z" />
    <glyph glyph-name="s" unicode="s" horiz-adv-x="388" 
d="M94 162q1 -39 13 -61.5t27.5 -33.5t32 -14t25.5 -3q50 0 76 26.5t26 71.5q0 28 -11.5 46t-28 30t-35.5 19.5t-34 13.5q-21 7 -46.5 17t-47 27.5t-36.5 43t-15 64.5q0 29 10 56.5t30 48.5t49 34t67 13q30 0 57.5 -11t47.5 -30.5t32 -46.5t12 -59v-2h-70q-2 25 -10.5 41.5
t-20.5 26.5t-25.5 14t-25.5 4q-21 0 -36.5 -7.5t-26 -19.5t-15.5 -26.5t-5 -28.5q0 -22 9.5 -37t24.5 -25.5t32 -17t32 -11.5q24 -8 51.5 -19.5t50.5 -30.5t38.5 -48t15.5 -71v-2q0 -35 -10.5 -65.5t-32 -53t-54 -35.5t-75.5 -13q-28 0 -58 9.5t-54.5 30t-40 52.5t-15.5 77
v6h70z" />
    <glyph glyph-name="t" unicode="t" horiz-adv-x="339" 
d="M129 484h-115v63h115v193h70v-193h131v-63h-131v-484h-70v484z" />
    <glyph glyph-name="u" unicode="u" horiz-adv-x="608" 
d="M541 0h-66v85h-2q-8 -15 -21.5 -32.5t-35 -32t-51 -24t-67.5 -9.5q-41 0 -72 8.5t-53.5 21t-38 27t-24.5 25.5q-29 36 -38.5 84t-9.5 92v302h70v-301q0 -52 10.5 -86.5t28.5 -57.5q29 -32 63.5 -42t63.5 -10t59.5 9t56.5 35q12 12 22.5 25.5t18 32.5t12 44.5t4.5 61.5
v289h70v-547z" />
    <glyph glyph-name="v" unicode="v" 
d="M7 547h75l193 -460l196 460h75l-231 -547h-77z" />
    <glyph glyph-name="w" unicode="w" horiz-adv-x="831" 
d="M13 547h73l172 -458h2l125 392h61l126 -392h2l174 458h72l-209 -547h-79l-116 364h-2l-114 -364h-79z" />
    <glyph glyph-name="x" unicode="x" horiz-adv-x="480" 
d="M199 278l-187 269h84l144 -211l143 211h85l-187 -269l187 -278h-83l-145 219l-145 -219h-83z" />
    <glyph glyph-name="y" unicode="y" horiz-adv-x="536" 
d="M228 18l-213 529h74l174 -436l186 436h74l-317 -739h-73z" />
    <glyph glyph-name="z" unicode="z" horiz-adv-x="425" 
d="M10 61l303 423h-293v63h377v-63l-300 -421h318v-63h-405v61z" />
    <glyph glyph-name="braceleft" unicode="{" horiz-adv-x="351" 
d="M331 680h-50q-15 0 -24 -7.5t-14.5 -19.5t-7.5 -27.5t-2 -31.5v-183q0 -35 -10.5 -59.5t-24.5 -40.5t-28.5 -24t-23.5 -10v-3q9 -1 23.5 -8t28.5 -22t24.5 -40.5t10.5 -63.5v-183q0 -15 2 -30.5t7.5 -28t14.5 -20t24 -7.5h50v-60h-66q-44 0 -75 33.5t-31 97.5v182
q0 27 -7.5 49t-20 37t-28.5 23.5t-33 9.5v64q17 1 33 10t28.5 24.5t20 37.5t7.5 48v182q0 64 31 97.5t75 33.5h66v-60z" />
    <glyph glyph-name="bar" unicode="|" horiz-adv-x="672" 
d="M373 778v-1000h-74v1000h74z" />
    <glyph glyph-name="braceright" unicode="}" horiz-adv-x="351" 
d="M20 740h66q44 0 75 -33.5t31 -97.5v-182q0 -26 7.5 -48t20 -37.5t28.5 -24.5t33 -10v-64q-17 -1 -33 -9.5t-28.5 -23.5t-20 -37t-7.5 -49v-182q0 -64 -31 -97.5t-75 -33.5h-66v60h50q15 0 24 7.5t14.5 20t7.5 28t2 30.5v183q0 38 10.5 63.5t24.5 40.5t28.5 22t23.5 8v3
q-9 2 -23.5 10t-28.5 24t-24.5 40.5t-10.5 59.5v183q0 16 -2 31.5t-7.5 27.5t-14.5 19.5t-24 7.5h-50v60z" />
    <glyph glyph-name="asciitilde" unicode="~" horiz-adv-x="606" 
d="M534 269q-11 -16 -23.5 -31.5t-27 -27.5t-33 -19.5t-41.5 -7.5q-28 0 -52.5 9.5t-49.5 23.5q-24 14 -52 26.5t-63 12.5q-17 0 -29.5 -7t-23 -18t-18 -24.5t-13.5 -26.5l-36 50q8 16 19.5 31.5t26.5 27.5t34.5 19.5t44.5 7.5q26 0 54 -9.5t57 -22.5q28 -12 55 -26t47 -14
q15 0 27.5 7t23 18t19.5 24.5t18 26.5z" />
    <glyph glyph-name="exclamdown" unicode="&#xa1;" horiz-adv-x="295" 
d="M110 548h74v-126h-74v126zM110 355h74v-547h-74v547z" />
    <glyph glyph-name="cent" unicode="&#xa2;" 
d="M246 62v94q-43 6 -79.5 26.5t-62.5 50.5t-41 68.5t-15 81.5t15 81.5t41 68.5t62.5 50.5t79.5 26.5v97h74v-96q67 -8 117 -48t73 -100h-81q-9 15 -21 30t-29.5 27t-40.5 19.5t-53 7.5q-38 0 -68 -15t-51 -38.5t-32.5 -52.5t-11.5 -58t11.5 -58t32.5 -52.5t51 -38.5t68 -15
q29 0 51 6.5t38 17t27.5 23t19.5 25.5h83q-23 -54 -71.5 -91t-112.5 -45v-93h-74z" />
    <glyph glyph-name="sterling" unicode="&#xa3;" 
d="M29 63h148q17 26 26 56.5t9 62.5q-1 30 -10.5 52.5t-24.5 41.5t-33 36.5t-34 36.5h-106v63h59q-7 16 -14.5 39.5t-7.5 58.5q0 49 16.5 93t47.5 77.5t74 53t97 19.5q43 0 83 -14.5t72.5 -41.5t54 -66.5t27.5 -89.5h-72q-5 31 -19 58.5t-35.5 47.5t-49.5 31.5t-61 11.5
q-34 0 -63.5 -13t-51 -36.5t-34 -56.5t-12.5 -74q0 -40 9 -60.5t20 -37.5h285v-63h-225v-2q38 -33 59.5 -75t22.5 -90q0 -38 -11 -68t-19 -51h43q19 0 49.5 4t59 20t49.5 46t21 83q0 16 -3 27.5t-6 24.5h74q4 -12 6.5 -24t2.5 -32q0 -15 -3 -36.5t-12.5 -45t-27 -47t-45 -42
t-67.5 -30t-95 -11.5h-273v63z" />
    <glyph glyph-name="currency" unicode="&#xa4;" 
d="M8 84l98 98q-20 25 -31.5 58t-11.5 71t12 72t31 57l-98 96l44 44l96 -98q25 20 58 31.5t71 11.5q39 0 73 -12t56 -31l98 98l42 -44l-96 -96q19 -23 31 -57t12 -72q0 -39 -12 -72.5t-31 -56.5l96 -98l-42 -42l-98 96q-23 -19 -56.5 -31t-72.5 -12t-72.5 12t-56.5 31
l-96 -96zM277 467q-32 0 -60 -13t-49 -34.5t-33 -49.5t-12 -59q0 -32 12 -60.5t33 -50t49 -34.5t60 -13q33 0 61.5 13t49.5 34.5t33 50t12 60.5q0 31 -12 59t-33 49.5t-49.5 34.5t-61.5 13z" />
    <glyph glyph-name="yen" unicode="&#xa5;" 
d="M240 227h-207v63h207v58l-17 26h-190v63h152l-181 303h80l194 -325l192 325h80l-181 -303h152v-63h-190l-17 -26v-58h207v-64h-207v-226h-74v227z" />
    <glyph glyph-name="brokenbar" unicode="&#xa6;" horiz-adv-x="672" 
d="M373 203v-350h-74v350h74zM373 703v-350h-74v350h74z" />
    <glyph glyph-name="section" unicode="&#xa7;" horiz-adv-x="615" 
d="M218 453q-32 -18 -45.5 -47t-13.5 -55q0 -31 16.5 -49t35.5 -27l188 -94q28 17 42 45t14 54q0 18 -6 31.5t-15.5 24t-20.5 18t-20 12.5zM408 606q0 35 -25 57.5t-71 22.5q-49 0 -76.5 -27t-27.5 -70q0 -27 13 -48t44 -36l147 -73q19 -10 40 -22t38 -29t28 -41.5t11 -58.5
q0 -13 -4.5 -30t-14.5 -36t-25 -37t-37 -32q31 -26 41.5 -56t10.5 -63q0 -32 -13 -62t-37.5 -53.5t-59.5 -38t-78 -14.5q-45 0 -82 15.5t-63.5 43.5t-41.5 65t-16 81h74q5 -73 41.5 -105.5t87.5 -32.5q27 0 48.5 9t36 23.5t22 32.5t7.5 36q0 15 -3 28.5t-12.5 26.5t-27 26.5
t-47.5 28.5l-155 80q-14 7 -31 18t-31.5 26.5t-24 36.5t-9.5 49q0 29 10 52t24 41t29 30.5t26 20.5q-15 15 -23 31.5t-12 31t-4.5 25t-0.5 13.5q0 34 13.5 63t37 51t56 34.5t71.5 12.5q37 0 68.5 -10t54 -28.5t35 -46t12.5 -62.5h-74z" />
    <glyph glyph-name="dieresis" unicode="&#xa8;" horiz-adv-x="369" 
d="M295 765v-126h-74v126h74zM147 765v-126h-74v126h74z" />
    <glyph glyph-name="copyright" unicode="&#xa9;" horiz-adv-x="747" 
d="M373 701q-70 0 -129.5 -26.5t-103.5 -72t-69 -105.5t-25 -127q0 -68 25.5 -128t69.5 -105t103.5 -71.5t128.5 -26.5q67 0 127 26t104 70.5t70 105t26 129.5q0 67 -25 127t-69 105.5t-104 72t-129 26.5zM374 752q79 0 148.5 -30.5t121.5 -82.5t81.5 -121.5t29.5 -147.5
q0 -80 -30.5 -149.5t-82 -121t-121 -81.5t-147.5 -30q-80 0 -150 30.5t-122 82.5t-81.5 121.5t-29.5 147.5t29.5 147.5t81.5 121.5t121.5 82.5t150.5 30.5zM516 447q-7 31 -21.5 51t-33 31t-40 15t-42.5 4q-73 0 -116.5 -46.5t-43.5 -130.5t43.5 -130.5t116.5 -46.5
q21 0 42.5 4t40 15t33 30.5t21.5 51.5h55q-3 -30 -18.5 -57.5t-40.5 -48.5t-59 -33.5t-74 -12.5q-49 0 -89 17.5t-68 48t-43 72t-15 90.5t15 90.5t43 72t68 48t89 17.5q40 0 74 -12.5t59 -33.5t40.5 -48.5t18.5 -57.5h-55z" />
    <glyph glyph-name="ordfeminine" unicode="&#xaa;" horiz-adv-x="369" 
d="M57 579q0 -23 9 -44t25.5 -37t38 -25.5t47.5 -9.5q25 0 47.5 8.5t39 24t26 37t9.5 48.5q0 25 -9.5 46t-26 36.5t-39 24.5t-47.5 9q-23 0 -44.5 -8.5t-38.5 -24t-27 -37t-10 -48.5zM356 415h-60v52h-2q-19 -32 -51 -46t-69 -14t-69.5 14t-56.5 38t-37.5 55.5t-13.5 66.5
q0 32 12.5 63t36 55t56 39t72.5 15q13 0 29 -2t32.5 -8.5t32 -18.5t26.5 -31h2v52h60v-330z" />
    <glyph glyph-name="guillemotleft" unicode="&#xab;" horiz-adv-x="425" 
d="M214 282l113 199l59 -31l-95 -168l95 -168l-59 -33zM40 282l113 199l59 -31l-94 -168l94 -168l-59 -33z" />
    <glyph glyph-name="logicalnot" unicode="&#xac;" horiz-adv-x="606" 
d="M555 109h-68v211h-436v68h504v-279z" />
    <glyph glyph-name="registered" unicode="&#xae;" horiz-adv-x="747" 
d="M373 701q-70 0 -129.5 -26.5t-103.5 -72t-69 -105.5t-25 -127q0 -68 25.5 -128t69.5 -105t103.5 -71.5t128.5 -26.5q67 0 127 26t104 70.5t70 105t26 129.5q0 67 -25 127t-69 105.5t-104 72t-129 26.5zM374 752q79 0 148.5 -30.5t121.5 -82.5t81.5 -121.5t29.5 -147.5
q0 -80 -30.5 -149.5t-82 -121t-121 -81.5t-147.5 -30q-80 0 -150 30.5t-122 82.5t-81.5 121.5t-29.5 147.5t29.5 147.5t81.5 121.5t121.5 82.5t150.5 30.5zM265 383h110q11 0 30.5 1t39 8.5t34 24t14.5 46.5q0 27 -13 41t-30.5 21t-35.5 8t-29 1h-120v-151zM394 585
q10 0 35.5 -2t51.5 -13t46.5 -35t20.5 -69q0 -36 -18 -65.5t-63 -40.5v-2q22 -6 36 -16t22 -23.5t11 -31t4 -38.5q1 -28 2 -44.5t2.5 -27t3.5 -16.5t6 -13h-55q-3 5 -5 10.5t-3.5 14.5t-2.5 22t-2 34q0 26 -3.5 45.5t-15 32.5t-34 19.5t-59.5 6.5h-109v-185h-55v437h184z
" />
    <glyph glyph-name="macron" unicode="&#xaf;" horiz-adv-x="485" 
d="M411 736v-67h-338v67h338z" />
    <glyph glyph-name="macron" unicode="&#x2c9;" horiz-adv-x="485" 
d="M411 736v-67h-338v67h338z" />
    <glyph glyph-name="degree" unicode="&#xb0;" horiz-adv-x="400" 
d="M106 565q0 -18 6.5 -34.5t18.5 -30t29.5 -21.5t39.5 -8t39.5 8t29.5 21.5t18.5 30t6.5 34.5t-6.5 34.5t-18.5 30t-29.5 21.5t-39.5 8t-39.5 -8t-29.5 -21.5t-18.5 -30t-6.5 -34.5zM56 565q0 30 11 56t30.5 45.5t46 31t56.5 11.5t56 -11.5t45.5 -31t31 -45.5t11.5 -56
t-11.5 -56.5t-31 -46t-45.5 -30.5t-56 -11t-56.5 11t-46 30.5t-30.5 46t-11 56.5z" />
    <glyph glyph-name="plusminus" unicode="&#xb1;" horiz-adv-x="606" 
d="M51 44h504v-68h-504v68zM269 518h68v-178h218v-68h-218v-178h-68v178h-218v68h218v178z" />
    <glyph glyph-name="twosuperior" unicode="&#xb2;" horiz-adv-x="332" 
d="M19 345l158 147q21 19 36 34t25 28.5t15 26.5t5 28t-6 30t-17.5 27t-27.5 19.5t-36 7.5q-41 0 -64.5 -25.5t-23.5 -81.5h-60v5q0 53 18.5 84t43.5 47t50 20.5t38 4.5q34 0 61 -12.5t46 -32.5t28.5 -44t9.5 -46v-4q0 -24 -7 -44t-19 -36.5t-26.5 -31t-29.5 -28.5
l-129 -118h210v-54h-298v49z" />
    <glyph glyph-name="threesuperior" unicode="&#xb3;" horiz-adv-x="332" 
d="M48 618q0 37 12 61.5t30 39.5t39 21.5t40 6.5q27 0 49 -9.5t38 -26t24.5 -37.5t8.5 -44q0 -33 -13.5 -50.5t-27.5 -29.5q33 -20 51.5 -49t18.5 -66q0 -33 -12 -59.5t-32.5 -46t-47.5 -30t-56 -10.5q-11 0 -35.5 4t-50 20t-45.5 47t-21 85h60q2 -18 3.5 -32t12.5 -27
q11 -16 28.5 -29.5t47.5 -13.5q40 0 63.5 24.5t24.5 66.5q-1 25 -18.5 50t-51.5 32q-17 4 -57 4v54h24q23 0 37.5 6t22.5 15t11 19t3 18t-3 18t-10 19.5t-19 16t-30 7.5q-9 -1 -19.5 -4.5t-19 -11.5t-14.5 -22.5t-6 -36.5h-60z" />
    <glyph glyph-name="acute" unicode="&#xb4;" horiz-adv-x="375" 
d="M277 786l32 -60l-198 -107l-33 58z" />
    <glyph glyph-name="mu" unicode="&#xb5;" horiz-adv-x="608" 
d="M475 0v85h-2q-8 -15 -21.5 -32.5t-35 -32t-51 -24t-67.5 -9.5q-66 0 -104.5 18.5t-61.5 50.5v-248h-70v739h70v-301q0 -52 10 -87t29 -57q28 -33 63 -42.5t64 -9.5t59.5 9t56.5 35q12 12 22.5 25.5t18 32.5t12 44.5t4.5 61.5v289h70v-547h-66z" />
    <glyph glyph-name="mu" unicode="&#x3bc;" horiz-adv-x="608" 
d="M475 0v85h-2q-8 -15 -21.5 -32.5t-35 -32t-51 -24t-67.5 -9.5q-66 0 -104.5 18.5t-61.5 50.5v-248h-70v739h70v-301q0 -52 10 -87t29 -57q28 -33 63 -42.5t64 -9.5t59.5 9t56.5 35q12 12 22.5 25.5t18 32.5t12 44.5t4.5 61.5v289h70v-547h-66z" />
    <glyph glyph-name="paragraph" unicode="&#xb6;" horiz-adv-x="564" 
d="M243 348h-17q-44 0 -81.5 14t-64.5 39.5t-42.5 61t-15.5 79.5q0 57 25.5 100t62.5 66q23 14 65 23t90 9h286v-56h-64v-794h-62v794h-120v-794h-62v458z" />
    <glyph glyph-name="periodcentered" unicode="&#xb7;" horiz-adv-x="277" 
d="M102 316h74v-126h-74v126z" />
    <glyph glyph-name="periodcentered" unicode="&#x2219;" horiz-adv-x="277" 
d="M102 316h74v-126h-74v126z" />
    <glyph glyph-name="cedilla" unicode="&#xb8;" horiz-adv-x="324" 
d="M149 -56q13 4 24 4h9q32 -2 52 -26t20 -58v-2q-3 -38 -28.5 -61t-57.5 -23h-6q-29 2 -52.5 19.5t-30.5 57.5l42 2q3 -19 15 -29.5t28 -12.5h3q20 0 32 14t14 34v4q0 21 -11.5 33t-30.5 14h-6q-17 0 -26 -6.5t-14 -12.5l-36 21l46 87l42 -3z" />
    <glyph glyph-name="onesuperior" unicode="&#xb9;" horiz-adv-x="332" 
d="M138 686h-75v54h135v-444h-60v390z" />
    <glyph glyph-name="ordmasculine" unicode="&#xba;" horiz-adv-x="369" 
d="M72 579q0 -26 9 -47.5t24.5 -36.5t36 -23.5t43.5 -8.5q21 0 41 7.5t35.5 22.5t25 37t9.5 51t-10.5 50.5t-26.5 36t-36 22t-38 7.5q-20 0 -40.5 -8t-36.5 -23t-26 -37t-10 -50zM12 577q0 40 14.5 72.5t38.5 55.5t55 35.5t64 12.5q36 0 67.5 -14t55 -38t36.5 -55t13 -65
q0 -35 -13 -66.5t-36 -55.5t-54.5 -38t-68.5 -14q-36 0 -67.5 14t-55 37.5t-36.5 54t-13 64.5z" />
    <glyph glyph-name="guillemotright" unicode="&#xbb;" horiz-adv-x="425" 
d="M39 114l94 168l-94 168l58 31l114 -199l-114 -201zM213 114l94 168l-94 168l58 31l114 -199l-114 -201z" />
    <glyph glyph-name="onequarter" unicode="&#xbc;" horiz-adv-x="831" 
d="M629 78h-225v49l219 317h65v-312h41v-54h-41v-78h-59v78zM175 686h-75v54h135v-444h-60v390zM629 132v222h-2l-149 -222h151zM516 740h60l-333 -740h-60z" />
    <glyph glyph-name="onehalf" unicode="&#xbd;" horiz-adv-x="831" 
d="M451 49l158 147q21 19 36 34t25 28.5t15 26.5t5 28t-6 30t-17.5 27t-27.5 19.5t-36 7.5q-41 0 -64.5 -25.5t-23.5 -81.5h-60v5q0 53 18.5 84t43.5 47t50 20.5t38 4.5q34 0 61 -12.5t46 -32.5t28.5 -44t9.5 -46v-4q0 -24 -7 -44t-19 -36.5t-26.5 -31t-29.5 -28.5
l-129 -118h210v-54h-298v49zM156 686h-75v54h135v-444h-60v390zM497 740h60l-333 -740h-60z" />
    <glyph glyph-name="threequarters" unicode="&#xbe;" horiz-adv-x="831" 
d="M76 618q0 37 12 61.5t30 39.5t39 21.5t40 6.5q27 0 49 -9.5t38 -26t24.5 -37.5t8.5 -44q0 -33 -13.5 -50.5t-27.5 -29.5q33 -20 51.5 -49t18.5 -66q0 -33 -12 -59.5t-32.5 -46t-47.5 -30t-56 -10.5q-11 0 -35.5 4t-50 20t-45.5 47t-21 85h60q2 -18 3.5 -32t12.5 -27
q11 -16 28.5 -29.5t47.5 -13.5q40 0 63.5 24.5t24.5 66.5q-1 25 -18.5 50t-51.5 32q-10 2 -20.5 2.5t-36.5 1.5v54h24q23 0 37.5 6t22.5 15t11 19t3 18t-3 18t-10 19.5t-19 16t-30 7.5q-9 -1 -19.5 -4.5t-19 -11.5t-14.5 -22.5t-6 -36.5h-60zM684 78h-225v49l219 317h65
v-312h41v-54h-41v-78h-59v78zM586 740h60l-333 -740h-60zM684 132v222h-2l-149 -222h151z" />
    <glyph glyph-name="questiondown" unicode="&#xbf;" horiz-adv-x="591" 
d="M328 422h-74v126h74v-126zM527 39v-19q0 -44 -18 -84.5t-49.5 -72t-74.5 -50t-93 -18.5t-92 17.5t-72 48t-46.5 71t-16.5 85.5q0 30 7 53.5t20.5 44t33.5 41t45 44.5q11 11 25 25.5t26.5 33.5t21 42.5t10.5 53.5h74v-4q0 -38 -11.5 -69t-27.5 -55.5t-34.5 -43.5
t-31.5 -31q-18 -17 -33 -32t-26.5 -30.5t-18 -34t-6.5 -40.5q0 -27 11 -54t31.5 -48.5t49.5 -34.5t64 -13q48 0 80 21.5t55 51.5q17 26 20 52t3 49h74z" />
    <glyph glyph-name="Agrave" unicode="&#xc0;" horiz-adv-x="740" 
d="M481 840l-33 -58l-198 107l32 60zM225 316h287l-142 340zM328 740h83l318 -740h-81l-107 249h-344l-108 -249h-77z" />
    <glyph glyph-name="Aacute" unicode="&#xc1;" horiz-adv-x="740" 
d="M460 949l32 -60l-198 -107l-33 58zM225 316h287l-142 340zM328 740h83l318 -740h-81l-107 249h-344l-108 -249h-77z" />
    <glyph glyph-name="Acircumflex" unicode="&#xc2;" horiz-adv-x="740" 
d="M338 927h66l143 -125h-89l-86 73l-88 -73h-91zM225 316h287l-142 340zM328 740h83l318 -740h-81l-107 249h-344l-108 -249h-77z" />
    <glyph glyph-name="Atilde" unicode="&#xc3;" horiz-adv-x="740" 
d="M543 853q-24 -18 -49.5 -28.5t-48.5 -10.5q-25 0 -45.5 7.5t-34.5 13.5q-23 11 -36 15.5t-29 4.5q-18 0 -35.5 -8.5t-31.5 -21.5l-35 50q45 42 104 42q26 0 43.5 -6.5t36.5 -15.5q8 -3 26.5 -11t35.5 -8q16 0 28 6t35 20zM225 316h287l-142 340zM328 740h83l318 -740h-81
l-107 249h-344l-108 -249h-77z" />
    <glyph glyph-name="Adieresis" unicode="&#xc4;" horiz-adv-x="740" 
d="M481 928v-126h-74v126h74zM333 928v-126h-74v126h74zM225 316h287l-142 340zM328 740h83l318 -740h-81l-107 249h-344l-108 -249h-77z" />
    <glyph glyph-name="Aring" unicode="&#xc5;" horiz-adv-x="740" 
d="M318 851q0 -21 15 -36t36 -15q22 0 37 15t15 36q0 22 -15 37t-37 15q-20 0 -35.5 -15t-15.5 -37zM266 851q0 21 8 40t22.5 33.5t33 22.5t39.5 8q44 0 74 -30t30 -74q0 -21 -8 -40t-22.5 -33t-33.5 -22t-40 -8t-39.5 8t-33 22t-22.5 33t-8 40zM225 316h287l-142 340z
M328 740h83l318 -740h-81l-107 249h-344l-108 -249h-77z" />
    <glyph glyph-name="AE" unicode="&#xc6;" horiz-adv-x="992" 
d="M290 317h226v328h-2zM495 740h412v-67h-317v-266h306v-67h-306v-273h317v-67h-391v250h-273l-174 -250h-89z" />
    <glyph glyph-name="Ccedilla" unicode="&#xc7;" horiz-adv-x="813" 
d="M771 194q-30 -54 -70 -93.5t-85.5 -64.5t-93 -37t-91.5 -12l-22 -43q13 4 24 4h9q32 -2 52 -26t20 -58v-2q-3 -38 -28.5 -61t-57.5 -23h-6q-29 2 -52.5 19.5t-30.5 57.5l42 2q3 -19 15 -29.5t28 -12.5h3q20 0 32 14t14 34v4q0 21 -11.5 33t-30.5 14h-6q-17 0 -26 -6.5
t-14 -12.5l-36 21l39 74q-71 7 -133.5 38.5t-109.5 82t-74.5 116t-27.5 142.5q0 82 30.5 152t83 121.5t123 80.5t149.5 29q71 0 129 -22t101 -53.5t70.5 -66t38.5 -60.5h-83q-30 45 -68 72t-74 41t-67 18t-48 4q-65 0 -121.5 -26.5t-98.5 -70.5t-66.5 -101t-24.5 -119
q0 -65 26 -122t69.5 -100t100 -67.5t116.5 -24.5q14 0 42 3t63.5 16.5t75.5 41.5t78 79h83z" />
    <glyph glyph-name="Egrave" unicode="&#xc8;" horiz-adv-x="536" 
d="M379 840l-33 -58l-198 107l32 60zM70 740h405v-67h-331v-266h320v-67h-320v-273h331v-67h-405v740z" />
    <glyph glyph-name="Eacute" unicode="&#xc9;" horiz-adv-x="536" 
d="M358 949l32 -60l-198 -107l-33 58zM70 740h405v-67h-331v-266h320v-67h-320v-273h331v-67h-405v740z" />
    <glyph glyph-name="Ecircumflex" unicode="&#xca;" horiz-adv-x="536" 
d="M236 927h66l143 -125h-89l-86 73l-88 -73h-91zM70 740h405v-67h-331v-266h320v-67h-320v-273h331v-67h-405v740z" />
    <glyph glyph-name="Edieresis" unicode="&#xcb;" horiz-adv-x="536" 
d="M379 928v-126h-74v126h74zM231 928v-126h-74v126h74zM70 740h405v-67h-331v-266h320v-67h-320v-273h331v-67h-405v740z" />
    <glyph glyph-name="Igrave" unicode="&#xcc;" horiz-adv-x="226" 
d="M184 840l-33 -58l-198 107l32 60zM76 740h74v-740h-74v740z" />
    <glyph glyph-name="Iacute" unicode="&#xcd;" horiz-adv-x="226" 
d="M242 949l32 -60l-198 -107l-33 58zM76 740h74v-740h-74v740z" />
    <glyph glyph-name="Icircumflex" unicode="&#xce;" horiz-adv-x="226" 
d="M81 927h66l143 -125h-89l-86 73l-88 -73h-91zM76 740h74v-740h-74v740z" />
    <glyph glyph-name="Idieresis" unicode="&#xcf;" horiz-adv-x="226" 
d="M224 928v-126h-74v126h74zM76 928v-126h-74v126h74zM76 740h74v-740h-74v740z" />
    <glyph glyph-name="Eth" unicode="&#xd0;" horiz-adv-x="790" 
d="M188 347v-280h107q25 0 56 1t64.5 6.5t67.5 17.5t66 35q17 14 37 36t37.5 52t29.5 69t12 87q0 74 -34 138.5t-92 106.5q-25 16 -51 27t-55 17.5t-63 9.5t-75 3h-107v-259h210v-67h-210zM40 347v67h74v326h212q83 0 146 -18.5t109 -49t76 -69.5t48.5 -80.5t26 -82
t7.5 -72.5q0 -25 -6 -62t-22 -78t-45 -81.5t-74 -73t-109.5 -53t-152.5 -20.5h-216v347h-74z" />
    <glyph glyph-name="Ntilde" unicode="&#xd1;" horiz-adv-x="740" 
d="M543 853q-24 -18 -49.5 -28.5t-48.5 -10.5q-25 0 -45.5 7.5t-34.5 13.5q-23 11 -36 15.5t-29 4.5q-18 0 -35.5 -8.5t-31.5 -21.5l-35 50q45 42 104 42q26 0 43.5 -6.5t36.5 -15.5q8 -3 26.5 -11t35.5 -8q16 0 28 6t35 20zM75 740h100l413 -614h2v614h74v-740h-74
l-439 651h-2v-651h-74v740z" />
    <glyph glyph-name="Ograve" unicode="&#xd2;" horiz-adv-x="869" 
d="M546 840l-33 -58l-198 107l32 60zM117 366q0 -63 25.5 -120t68.5 -99.5t100.5 -67.5t122.5 -25q64 0 122 24.5t101.5 67t69 100t25.5 123.5q0 65 -25 122.5t-68.5 101t-101 68.5t-123.5 25q-63 0 -120 -24t-101 -67t-70 -101.5t-26 -127.5zM43 366q0 87 33.5 158.5
t88 122.5t125 78.5t144.5 27.5q78 0 149 -29t125 -80.5t86 -121.5t32 -152t-32 -152t-86 -121.5t-125 -80.5t-149 -29q-79 0 -150 30t-124.5 81.5t-85 120.5t-31.5 147z" />
    <glyph glyph-name="Oacute" unicode="&#xd3;" horiz-adv-x="869" 
d="M564 949l32 -60l-198 -107l-33 58zM117 366q0 -63 25.5 -120t68.5 -99.5t100.5 -67.5t122.5 -25q64 0 122 24.5t101.5 67t69 100t25.5 123.5q0 65 -25 122.5t-68.5 101t-101 68.5t-123.5 25q-63 0 -120 -24t-101 -67t-70 -101.5t-26 -127.5zM43 366q0 87 33.5 158.5
t88 122.5t125 78.5t144.5 27.5q78 0 149 -29t125 -80.5t86 -121.5t32 -152t-32 -152t-86 -121.5t-125 -80.5t-149 -29q-79 0 -150 30t-124.5 81.5t-85 120.5t-31.5 147z" />
    <glyph glyph-name="Ocircumflex" unicode="&#xd4;" horiz-adv-x="869" 
d="M403 927h66l143 -125h-89l-86 73l-88 -73h-91zM117 366q0 -63 25.5 -120t68.5 -99.5t100.5 -67.5t122.5 -25q64 0 122 24.5t101.5 67t69 100t25.5 123.5q0 65 -25 122.5t-68.5 101t-101 68.5t-123.5 25q-63 0 -120 -24t-101 -67t-70 -101.5t-26 -127.5zM43 366
q0 87 33.5 158.5t88 122.5t125 78.5t144.5 27.5q78 0 149 -29t125 -80.5t86 -121.5t32 -152t-32 -152t-86 -121.5t-125 -80.5t-149 -29q-79 0 -150 30t-124.5 81.5t-85 120.5t-31.5 147z" />
    <glyph glyph-name="Otilde" unicode="&#xd5;" horiz-adv-x="869" 
d="M607 853q-24 -18 -49.5 -28.5t-48.5 -10.5q-25 0 -45.5 7.5t-34.5 13.5q-23 11 -36 15.5t-29 4.5q-18 0 -35.5 -8.5t-31.5 -21.5l-35 50q45 42 104 42q26 0 43.5 -6.5t36.5 -15.5q8 -3 26.5 -11t35.5 -8q16 0 28 6t35 20zM117 366q0 -63 25.5 -120t68.5 -99.5
t100.5 -67.5t122.5 -25q64 0 122 24.5t101.5 67t69 100t25.5 123.5q0 65 -25 122.5t-68.5 101t-101 68.5t-123.5 25q-63 0 -120 -24t-101 -67t-70 -101.5t-26 -127.5zM43 366q0 87 33.5 158.5t88 122.5t125 78.5t144.5 27.5q78 0 149 -29t125 -80.5t86 -121.5t32 -152
t-32 -152t-86 -121.5t-125 -80.5t-149 -29q-79 0 -150 30t-124.5 81.5t-85 120.5t-31.5 147z" />
    <glyph glyph-name="Odieresis" unicode="&#xd6;" horiz-adv-x="869" 
d="M545 928v-126h-74v126h74zM397 928v-126h-74v126h74zM117 366q0 -63 25.5 -120t68.5 -99.5t100.5 -67.5t122.5 -25q64 0 122 24.5t101.5 67t69 100t25.5 123.5q0 65 -25 122.5t-68.5 101t-101 68.5t-123.5 25q-63 0 -120 -24t-101 -67t-70 -101.5t-26 -127.5zM43 366
q0 87 33.5 158.5t88 122.5t125 78.5t144.5 27.5q78 0 149 -29t125 -80.5t86 -121.5t32 -152t-32 -152t-86 -121.5t-125 -80.5t-149 -29q-79 0 -150 30t-124.5 81.5t-85 120.5t-31.5 147z" />
    <glyph glyph-name="multiply" unicode="&#xd7;" horiz-adv-x="606" 
d="M74 72l182 182l-181 180l48 48l181 -180l180 180l48 -48l-180 -180l181 -182l-48 -48l-181 182l-182 -182z" />
    <glyph glyph-name="Oslash" unicode="&#xd8;" horiz-adv-x="868" 
d="M274 98q50 -29 92 -36.5t69 -7.5q63 0 120.5 24.5t101 67t69.5 100t26 123.5q0 68 -26 125.5t-75 105.5zM596 641q-39 23 -78 34t-84 11q-65 0 -123 -25t-101 -68.5t-68 -101t-25 -122.5q0 -59 24 -119.5t78 -110.5zM730 819l55 -40l-92 -123q40 -35 65.5 -72.5t40.5 -75
t21 -73t6 -65.5q0 -82 -32 -152t-86 -121.5t-125 -80.5t-149 -29q-55 0 -104 14t-97 42l-94 -126l-55 40l93 126q-63 55 -98.5 129t-35.5 158q0 82 32 152t86 121.5t125 80.5t148 29q57 0 106 -14t98 -43z" />
    <glyph glyph-name="Ugrave" unicode="&#xd9;" horiz-adv-x="655" 
d="M419 840l-33 -58l-198 107l32 60zM149 740v-461q0 -41 6 -76t19 -58q17 -31 38 -49t42 -27.5t40.5 -12t32.5 -2.5t32.5 2.5t40.5 12t42 27.5t38 49q13 23 19 58t6 76v461h74v-461q0 -93 -28 -154q-19 -42 -47 -68.5t-58.5 -42t-61.5 -21.5t-57 -6t-57 6t-62 21.5
t-58.5 42t-46.5 68.5q-28 61 -28 154v461h74z" />
    <glyph glyph-name="Uacute" unicode="&#xda;" horiz-adv-x="655" 
d="M437 949l32 -60l-198 -107l-33 58zM149 740v-461q0 -41 6 -76t19 -58q17 -31 38 -49t42 -27.5t40.5 -12t32.5 -2.5t32.5 2.5t40.5 12t42 27.5t38 49q13 23 19 58t6 76v461h74v-461q0 -93 -28 -154q-19 -42 -47 -68.5t-58.5 -42t-61.5 -21.5t-57 -6t-57 6t-62 21.5
t-58.5 42t-46.5 68.5q-28 61 -28 154v461h74z" />
    <glyph glyph-name="Ucircumflex" unicode="&#xdb;" horiz-adv-x="655" 
d="M296 927h66l143 -125h-89l-86 73l-88 -73h-91zM149 740v-461q0 -41 6 -76t19 -58q17 -31 38 -49t42 -27.5t40.5 -12t32.5 -2.5t32.5 2.5t40.5 12t42 27.5t38 49q13 23 19 58t6 76v461h74v-461q0 -93 -28 -154q-19 -42 -47 -68.5t-58.5 -42t-61.5 -21.5t-57 -6t-57 6
t-62 21.5t-58.5 42t-46.5 68.5q-28 61 -28 154v461h74z" />
    <glyph glyph-name="Udieresis" unicode="&#xdc;" horiz-adv-x="655" 
d="M438 928v-126h-74v126h74zM290 928v-126h-74v126h74zM149 740v-461q0 -41 6 -76t19 -58q17 -31 38 -49t42 -27.5t40.5 -12t32.5 -2.5t32.5 2.5t40.5 12t42 27.5t38 49q13 23 19 58t6 76v461h74v-461q0 -93 -28 -154q-19 -42 -47 -68.5t-58.5 -42t-61.5 -21.5t-57 -6
t-57 6t-62 21.5t-58.5 42t-46.5 68.5q-28 61 -28 154v461h74z" />
    <glyph glyph-name="Yacute" unicode="&#xdd;" horiz-adv-x="592" 
d="M406 949l32 -60l-198 -107l-33 58zM258 247l-257 493h82l211 -415l217 415h81l-260 -493v-247h-74v247z" />
    <glyph glyph-name="Thorn" unicode="&#xde;" horiz-adv-x="592" 
d="M134 216h107q30 0 50.5 0.5t37 2t30.5 5.5t30 11q44 20 65 56.5t21 78.5t-21 78.5t-65 56.5q-16 7 -30 11t-30.5 5.5t-37 2t-50.5 0.5h-107v-308zM60 740h74v-149h132q38 0 67 -3t51.5 -8.5t40 -13.5t32.5 -18q42 -28 67 -73.5t25 -104.5t-25 -104.5t-67 -73.5
q-15 -10 -32.5 -18t-40 -13.5t-51.5 -8.5t-67 -3h-132v-149h-74v740z" />
    <glyph glyph-name="germandbls" unicode="&#xdf;" 
d="M131 203h51q1 -34 12 -62t29 -48.5t42 -31.5t51 -11q24 0 48.5 9t45 27t33 45t12.5 62q0 32 -11 60t-35 48q-17 15 -37 23.5t-40.5 12.5t-39.5 4.5t-34 0.5h-34v67h5q25 0 55.5 5.5t57 20.5t44 43t17.5 73q0 31 -10.5 56.5t-28.5 44t-43 28.5t-53 10q-38 0 -67.5 -18.5
t-44.5 -47.5q-8 -14 -13 -28t-7.5 -31t-3.5 -37.5t-1 -46.5v-278zM61 481q0 71 7.5 111t27.5 69q26 40 72.5 66t99.5 26q43 0 80 -14.5t65 -42t44 -66t16 -86.5q0 -59 -23 -95t-65 -59q29 -10 54.5 -26.5t44.5 -39.5t30 -54t11 -70q0 -56 -19 -96t-49 -66t-67 -38.5
t-73 -12.5q-63 0 -113 32t-71 90h-2v-109h-70v481z" />
    <glyph glyph-name="agrave" unicode="&#xe0;" horiz-adv-x="683" 
d="M453 677l-33 -58l-198 107l32 60zM112 272q0 -46 16 -86.5t45.5 -70.5t71 -47.5t91.5 -17.5q44 0 84 17t70 46.5t47.5 70.5t17.5 89q0 45 -16.5 86t-46 71.5t-69.5 49t-87 18.5q-45 0 -85.5 -16t-71.5 -45t-49 -71t-18 -94zM621 0h-70v96h-2q-23 -34 -51 -55t-57 -33
t-56.5 -16.5t-48.5 -4.5q-65 0 -119 23t-93 62t-60.5 91.5t-21.5 111.5q0 55 21 106.5t59 91.5t92.5 64t121.5 24q22 0 50 -4.5t57 -16.5t56.5 -33.5t49.5 -55.5h2v96h70v-547z" />
    <glyph glyph-name="aacute" unicode="&#xe1;" horiz-adv-x="683" 
d="M431 786l32 -60l-198 -107l-33 58zM112 272q0 -46 16 -86.5t45.5 -70.5t71 -47.5t91.5 -17.5q44 0 84 17t70 46.5t47.5 70.5t17.5 89q0 45 -16.5 86t-46 71.5t-69.5 49t-87 18.5q-45 0 -85.5 -16t-71.5 -45t-49 -71t-18 -94zM621 0h-70v96h-2q-23 -34 -51 -55t-57 -33
t-56.5 -16.5t-48.5 -4.5q-65 0 -119 23t-93 62t-60.5 91.5t-21.5 111.5q0 55 21 106.5t59 91.5t92.5 64t121.5 24q22 0 50 -4.5t57 -16.5t56.5 -33.5t49.5 -55.5h2v96h70v-547z" />
    <glyph glyph-name="acircumflex" unicode="&#xe2;" horiz-adv-x="683" 
d="M310 764h66l143 -125h-89l-86 73l-88 -73h-91zM112 272q0 -46 16 -86.5t45.5 -70.5t71 -47.5t91.5 -17.5q44 0 84 17t70 46.5t47.5 70.5t17.5 89q0 45 -16.5 86t-46 71.5t-69.5 49t-87 18.5q-45 0 -85.5 -16t-71.5 -45t-49 -71t-18 -94zM621 0h-70v96h-2q-23 -34 -51 -55
t-57 -33t-56.5 -16.5t-48.5 -4.5q-65 0 -119 23t-93 62t-60.5 91.5t-21.5 111.5q0 55 21 106.5t59 91.5t92.5 64t121.5 24q22 0 50 -4.5t57 -16.5t56.5 -33.5t49.5 -55.5h2v96h70v-547z" />
    <glyph glyph-name="atilde" unicode="&#xe3;" horiz-adv-x="683" 
d="M514 690q-24 -18 -49.5 -28.5t-48.5 -10.5q-25 0 -45.5 7.5t-34.5 13.5q-23 11 -36 15.5t-29 4.5q-18 0 -35.5 -8.5t-31.5 -21.5l-35 50q45 42 104 42q26 0 43.5 -6.5t36.5 -15.5q8 -3 26.5 -11t35.5 -8q16 0 28 6t35 20zM112 272q0 -46 16 -86.5t45.5 -70.5t71 -47.5
t91.5 -17.5q44 0 84 17t70 46.5t47.5 70.5t17.5 89q0 45 -16.5 86t-46 71.5t-69.5 49t-87 18.5q-45 0 -85.5 -16t-71.5 -45t-49 -71t-18 -94zM621 0h-70v96h-2q-23 -34 -51 -55t-57 -33t-56.5 -16.5t-48.5 -4.5q-65 0 -119 23t-93 62t-60.5 91.5t-21.5 111.5q0 55 21 106.5
t59 91.5t92.5 64t121.5 24q22 0 50 -4.5t57 -16.5t56.5 -33.5t49.5 -55.5h2v96h70v-547z" />
    <glyph glyph-name="adieresis" unicode="&#xe4;" horiz-adv-x="683" 
d="M452 765v-126h-74v126h74zM304 765v-126h-74v126h74zM112 272q0 -46 16 -86.5t45.5 -70.5t71 -47.5t91.5 -17.5q44 0 84 17t70 46.5t47.5 70.5t17.5 89q0 45 -16.5 86t-46 71.5t-69.5 49t-87 18.5q-45 0 -85.5 -16t-71.5 -45t-49 -71t-18 -94zM621 0h-70v96h-2
q-23 -34 -51 -55t-57 -33t-56.5 -16.5t-48.5 -4.5q-65 0 -119 23t-93 62t-60.5 91.5t-21.5 111.5q0 55 21 106.5t59 91.5t92.5 64t121.5 24q22 0 50 -4.5t57 -16.5t56.5 -33.5t49.5 -55.5h2v96h70v-547z" />
    <glyph glyph-name="aring" unicode="&#xe5;" horiz-adv-x="683" 
d="M290 703q0 -21 15 -36t36 -15q22 0 37 15t15 36q0 22 -15 37t-37 15q-20 0 -35.5 -15t-15.5 -37zM238 703q0 21 8 40t22.5 33.5t33 22.5t39.5 8q44 0 74 -30t30 -74q0 -21 -8 -40t-22.5 -33t-33.5 -22t-40 -8t-39.5 8t-33 22t-22.5 33t-8 40zM112 272q0 -46 16 -86.5
t45.5 -70.5t71 -47.5t91.5 -17.5q44 0 84 17t70 46.5t47.5 70.5t17.5 89q0 45 -16.5 86t-46 71.5t-69.5 49t-87 18.5q-45 0 -85.5 -16t-71.5 -45t-49 -71t-18 -94zM621 0h-70v96h-2q-23 -34 -51 -55t-57 -33t-56.5 -16.5t-48.5 -4.5q-65 0 -119 23t-93 62t-60.5 91.5
t-21.5 111.5q0 55 21 106.5t59 91.5t92.5 64t121.5 24q22 0 50 -4.5t57 -16.5t56.5 -33.5t49.5 -55.5h2v96h70v-547z" />
    <glyph glyph-name="ae" unicode="&#xe6;" horiz-adv-x="1157" 
d="M548 272q0 45 -15.5 86t-44.5 72t-70 49.5t-91 18.5t-91 -19.5t-70.5 -51t-45.5 -73t-16 -84.5q0 -44 17 -84t47 -70t70.5 -48t87.5 -18q44 0 84 15.5t71 44.5t49 70t18 92zM1043 310q-8 49 -30 84.5t-51.5 58.5t-63.5 34t-67 11q-32 0 -66.5 -11t-64.5 -34t-52 -58.5
t-30 -84.5h425zM618 247q4 -49 25.5 -86t52 -61.5t66.5 -37t69 -12.5t64 10t57 27t45 40.5t28 50.5h70q-13 -43 -39.5 -78t-62 -60t-77.5 -39t-85 -14q-30 0 -61 7t-59 21.5t-52.5 35.5t-41.5 48h-2v-99h-70v99h-2q-22 -33 -48 -54.5t-54 -34.5t-57.5 -18t-57.5 -5
q-72 0 -127 27t-91.5 68.5t-55 92t-18.5 97.5q0 46 18.5 97t55 94t91.5 70.5t128 27.5q70 0 127 -28.5t89 -86.5h2v101h70v-101h2q14 27 38 48t52.5 36t60.5 23t62 8q44 0 82 -12.5t68.5 -32.5t53.5 -45t38 -50q24 -39 33 -78t9 -76q0 -5 -0.5 -10t-0.5 -10h-495z" />
    <glyph glyph-name="ccedilla" unicode="&#xe7;" horiz-adv-x="647" 
d="M607 161q-13 -25 -34 -55t-52.5 -56t-75.5 -43.5t-104 -18.5l-22 -44q13 4 24 4h9q32 -2 52 -26t20 -58v-2q-3 -38 -28.5 -61t-57.5 -23h-6q-29 2 -52.5 19.5t-30.5 57.5l42 2q3 -19 15 -29.5t28 -12.5h3q20 0 32 14t14 34v4q0 21 -11.5 33t-30.5 14h-6q-17 0 -26 -6.5
t-14 -12.5l-36 21l39 74q-57 6 -104 31t-81 63t-53 87t-19 102q0 59 23 111.5t63 91.5t93.5 62t114.5 23q36 0 75.5 -9.5t76.5 -31t68.5 -55.5t51.5 -83h-77q-17 31 -39.5 53t-48 36t-52.5 20.5t-53 6.5q-40 0 -80.5 -14.5t-72.5 -43t-52.5 -70t-20.5 -95.5q0 -46 17 -87
t47 -71.5t71.5 -48.5t90.5 -18q43 0 75.5 11.5t55.5 28.5t38.5 36t23.5 35h77z" />
    <glyph glyph-name="egrave" unicode="&#xe8;" horiz-adv-x="650" 
d="M436 677l-33 -58l-198 107l32 60zM537 311q-8 48 -30.5 83.5t-52.5 58.5t-64 34t-67 11q-32 0 -66.5 -11t-64.5 -34t-52.5 -58.5t-29.5 -83.5h427zM110 248q2 -40 20 -76t47.5 -63t67 -43t77.5 -16q37 1 69 11.5t57 28t43 40.5t27 49h74q-14 -41 -40 -76t-61.5 -61
t-78 -40.5t-89.5 -14.5q-57 0 -109 22t-91 60.5t-62 90.5t-23 113q0 58 22 110t60.5 91t90 62.5t111.5 24.5q45 0 83.5 -12.5t69 -32.5t53.5 -45t38 -50q24 -39 33.5 -78t9.5 -75q0 -5 -0.5 -10t-0.5 -10h-498z" />
    <glyph glyph-name="eacute" unicode="&#xe9;" horiz-adv-x="650" 
d="M415 786l32 -60l-198 -107l-33 58zM537 311q-8 48 -30.5 83.5t-52.5 58.5t-64 34t-67 11q-32 0 -66.5 -11t-64.5 -34t-52.5 -58.5t-29.5 -83.5h427zM110 248q2 -40 20 -76t47.5 -63t67 -43t77.5 -16q37 1 69 11.5t57 28t43 40.5t27 49h74q-14 -41 -40 -76t-61.5 -61
t-78 -40.5t-89.5 -14.5q-57 0 -109 22t-91 60.5t-62 90.5t-23 113q0 58 22 110t60.5 91t90 62.5t111.5 24.5q45 0 83.5 -12.5t69 -32.5t53.5 -45t38 -50q24 -39 33.5 -78t9.5 -75q0 -5 -0.5 -10t-0.5 -10h-498z" />
    <glyph glyph-name="ecircumflex" unicode="&#xea;" horiz-adv-x="650" 
d="M293 764h66l143 -125h-89l-86 73l-88 -73h-91zM537 311q-8 48 -30.5 83.5t-52.5 58.5t-64 34t-67 11q-32 0 -66.5 -11t-64.5 -34t-52.5 -58.5t-29.5 -83.5h427zM110 248q2 -40 20 -76t47.5 -63t67 -43t77.5 -16q37 1 69 11.5t57 28t43 40.5t27 49h74q-14 -41 -40 -76
t-61.5 -61t-78 -40.5t-89.5 -14.5q-57 0 -109 22t-91 60.5t-62 90.5t-23 113q0 58 22 110t60.5 91t90 62.5t111.5 24.5q45 0 83.5 -12.5t69 -32.5t53.5 -45t38 -50q24 -39 33.5 -78t9.5 -75q0 -5 -0.5 -10t-0.5 -10h-498z" />
    <glyph glyph-name="edieresis" unicode="&#xeb;" horiz-adv-x="650" 
d="M436 765v-126h-74v126h74zM288 765v-126h-74v126h74zM537 311q-8 48 -30.5 83.5t-52.5 58.5t-64 34t-67 11q-32 0 -66.5 -11t-64.5 -34t-52.5 -58.5t-29.5 -83.5h427zM110 248q2 -40 20 -76t47.5 -63t67 -43t77.5 -16q37 1 69 11.5t57 28t43 40.5t27 49h74
q-14 -41 -40 -76t-61.5 -61t-78 -40.5t-89.5 -14.5q-57 0 -109 22t-91 60.5t-62 90.5t-23 113q0 58 22 110t60.5 91t90 62.5t111.5 24.5q45 0 83.5 -12.5t69 -32.5t53.5 -45t38 -50q24 -39 33.5 -78t9.5 -75q0 -5 -0.5 -10t-0.5 -10h-498z" />
    <glyph glyph-name="igrave" unicode="&#xec;" horiz-adv-x="200" 
d="M171 677l-33 -58l-198 107l32 60zM65 547h70v-547h-70v547z" />
    <glyph glyph-name="iacute" unicode="&#xed;" horiz-adv-x="200" 
d="M229 786l32 -60l-198 -107l-33 58zM65 547h70v-547h-70v547z" />
    <glyph glyph-name="icircumflex" unicode="&#xee;" horiz-adv-x="200" 
d="M68 764h66l143 -125h-89l-86 73l-88 -73h-91zM65 547h70v-547h-70v547z" />
    <glyph glyph-name="idieresis" unicode="&#xef;" horiz-adv-x="200" 
d="M211 765v-126h-74v126h74zM63 765v-126h-74v126h74zM65 547h70v-547h-70v547z" />
    <glyph glyph-name="eth" unicode="&#xf0;" horiz-adv-x="655" 
d="M169 577l-50 39l145 55q-36 19 -66.5 31t-50.5 18l78 33q13 -4 45 -16t74 -35l133 51l48 -37l-125 -49q45 -32 84 -71t68 -86t45.5 -102.5t16.5 -121.5t-23 -121t-62.5 -94.5t-91.5 -61t-110 -21.5q-65 0 -117.5 24.5t-89.5 64.5t-57.5 92t-20.5 107q0 59 23 110.5
t61 89.5t87 60t102 22h7q43 0 77 -10.5t69 -35.5l2 2q-27 37 -65.5 68t-80.5 56zM112 272q0 -51 18.5 -92t48.5 -69.5t68.5 -44t78.5 -15.5q37 0 76 14.5t70.5 43t51.5 71.5t20 99q0 55 -20.5 96t-53 67.5t-71.5 39.5t-75 13q-31 0 -68 -12t-69 -38t-53.5 -69t-21.5 -104z
" />
    <glyph glyph-name="ntilde" unicode="&#xf1;" horiz-adv-x="610" 
d="M478 690q-24 -18 -49.5 -28.5t-48.5 -10.5q-25 0 -45.5 7.5t-34.5 13.5q-23 11 -36 15.5t-29 4.5q-18 0 -35.5 -8.5t-31.5 -21.5l-35 50q45 42 104 42q26 0 43.5 -6.5t36.5 -15.5q8 -3 26.5 -11t35.5 -8q16 0 28 6t35 20zM65 547h70v-70h2q8 12 22 27t35 27.5t48.5 21
t62.5 8.5q51 0 93 -14.5t80 -52.5q31 -30 49.5 -77.5t18.5 -115.5v-301h-70v301q0 54 -14.5 91t-37.5 59q-29 28 -62.5 37.5t-56.5 9.5t-56.5 -9.5t-62.5 -37.5q-22 -21 -36.5 -57.5t-14.5 -87.5v-306h-70v547z" />
    <glyph glyph-name="ograve" unicode="&#xf2;" horiz-adv-x="655" 
d="M439 677l-33 -58l-198 107l32 60zM112 271q0 -48 18 -88.5t48 -70t69 -46t81 -16.5q40 0 78.5 15.5t69 44.5t49.5 71t19 96t-20.5 95.5t-52 69t-70 42t-73.5 14.5q-38 0 -76 -15t-69.5 -44t-51 -71.5t-19.5 -96.5zM42 270q0 65 24.5 118.5t64 92t91 59.5t105.5 21
q61 0 113.5 -24t91 -63.5t60.5 -91.5t22 -108t-22 -108t-60 -91.5t-91 -63.5t-114 -24q-60 0 -112 23.5t-90.5 62.5t-60.5 90t-22 107z" />
    <glyph glyph-name="oacute" unicode="&#xf3;" horiz-adv-x="655" 
d="M447 786l32 -60l-198 -107l-33 58zM112 271q0 -48 18 -88.5t48 -70t69 -46t81 -16.5q40 0 78.5 15.5t69 44.5t49.5 71t19 96t-20.5 95.5t-52 69t-70 42t-73.5 14.5q-38 0 -76 -15t-69.5 -44t-51 -71.5t-19.5 -96.5zM42 270q0 65 24.5 118.5t64 92t91 59.5t105.5 21
q61 0 113.5 -24t91 -63.5t60.5 -91.5t22 -108t-22 -108t-60 -91.5t-91 -63.5t-114 -24q-60 0 -112 23.5t-90.5 62.5t-60.5 90t-22 107z" />
    <glyph glyph-name="ocircumflex" unicode="&#xf4;" horiz-adv-x="655" 
d="M296 764h66l143 -125h-89l-86 73l-88 -73h-91zM112 271q0 -48 18 -88.5t48 -70t69 -46t81 -16.5q40 0 78.5 15.5t69 44.5t49.5 71t19 96t-20.5 95.5t-52 69t-70 42t-73.5 14.5q-38 0 -76 -15t-69.5 -44t-51 -71.5t-19.5 -96.5zM42 270q0 65 24.5 118.5t64 92t91 59.5
t105.5 21q61 0 113.5 -24t91 -63.5t60.5 -91.5t22 -108t-22 -108t-60 -91.5t-91 -63.5t-114 -24q-60 0 -112 23.5t-90.5 62.5t-60.5 90t-22 107z" />
    <glyph glyph-name="otilde" unicode="&#xf5;" horiz-adv-x="655" 
d="M500 690q-24 -18 -49.5 -28.5t-48.5 -10.5q-25 0 -45.5 7.5t-34.5 13.5q-23 11 -36 15.5t-29 4.5q-18 0 -35.5 -8.5t-31.5 -21.5l-35 50q45 42 104 42q26 0 43.5 -6.5t36.5 -15.5q8 -3 26.5 -11t35.5 -8q16 0 28 6t35 20zM112 271q0 -48 18 -88.5t48 -70t69 -46t81 -16.5
q40 0 78.5 15.5t69 44.5t49.5 71t19 96t-20.5 95.5t-52 69t-70 42t-73.5 14.5q-38 0 -76 -15t-69.5 -44t-51 -71.5t-19.5 -96.5zM42 270q0 65 24.5 118.5t64 92t91 59.5t105.5 21q61 0 113.5 -24t91 -63.5t60.5 -91.5t22 -108t-22 -108t-60 -91.5t-91 -63.5t-114 -24
q-60 0 -112 23.5t-90.5 62.5t-60.5 90t-22 107z" />
    <glyph glyph-name="odieresis" unicode="&#xf6;" horiz-adv-x="655" 
d="M438 765v-126h-74v126h74zM290 765v-126h-74v126h74zM112 271q0 -48 18 -88.5t48 -70t69 -46t81 -16.5q40 0 78.5 15.5t69 44.5t49.5 71t19 96t-20.5 95.5t-52 69t-70 42t-73.5 14.5q-38 0 -76 -15t-69.5 -44t-51 -71.5t-19.5 -96.5zM42 270q0 65 24.5 118.5t64 92
t91 59.5t105.5 21q61 0 113.5 -24t91 -63.5t60.5 -91.5t22 -108t-22 -108t-60 -91.5t-91 -63.5t-114 -24q-60 0 -112 23.5t-90.5 62.5t-60.5 90t-22 107z" />
    <glyph glyph-name="divide" unicode="&#xf7;" horiz-adv-x="606" 
d="M266 113h74v-126h-74v126zM266 519h74v-126h-74v126zM51 287h504v-68h-504v68z" />
    <glyph glyph-name="oslash" unicode="&#xf8;" horiz-adv-x="653" 
d="M597 573l-72 -94q41 -40 64.5 -93t23.5 -112q0 -56 -22 -108t-60 -91.5t-91 -63.5t-114 -24q-41 0 -77.5 11t-67.5 31l-71 -93l-54 38l72 95q-41 40 -64 92t-23 109q0 65 24.5 118.5t64 92t91 59.5t105.5 21q41 0 77 -10.5t67 -30.5l72 94zM221 81q48 -31 106 -31
q40 0 78.5 15.5t69 44.5t49.5 71t19 96q0 48 -16 85t-42 64zM431 468q-26 16 -52.5 23t-51.5 7q-38 0 -76 -15t-69.5 -44t-51 -71.5t-19.5 -96.5q0 -44 15 -81.5t43 -66.5z" />
    <glyph glyph-name="ugrave" unicode="&#xf9;" horiz-adv-x="608" 
d="M395 677l-33 -58l-198 107l32 60zM541 0h-66v85h-2q-8 -15 -21.5 -32.5t-35 -32t-51 -24t-67.5 -9.5q-41 0 -72 8.5t-53.5 21t-38 27t-24.5 25.5q-29 36 -38.5 84t-9.5 92v302h70v-301q0 -52 10.5 -86.5t28.5 -57.5q29 -32 63.5 -42t63.5 -10t59.5 9t56.5 35
q12 12 22.5 25.5t18 32.5t12 44.5t4.5 61.5v289h70v-547z" />
    <glyph glyph-name="uacute" unicode="&#xfa;" horiz-adv-x="608" 
d="M414 786l32 -60l-198 -107l-33 58zM541 0h-66v85h-2q-8 -15 -21.5 -32.5t-35 -32t-51 -24t-67.5 -9.5q-41 0 -72 8.5t-53.5 21t-38 27t-24.5 25.5q-29 36 -38.5 84t-9.5 92v302h70v-301q0 -52 10.5 -86.5t28.5 -57.5q29 -32 63.5 -42t63.5 -10t59.5 9t56.5 35
q12 12 22.5 25.5t18 32.5t12 44.5t4.5 61.5v289h70v-547z" />
    <glyph glyph-name="ucircumflex" unicode="&#xfb;" horiz-adv-x="608" 
d="M272 764h66l143 -125h-89l-86 73l-88 -73h-91zM541 0h-66v85h-2q-8 -15 -21.5 -32.5t-35 -32t-51 -24t-67.5 -9.5q-41 0 -72 8.5t-53.5 21t-38 27t-24.5 25.5q-29 36 -38.5 84t-9.5 92v302h70v-301q0 -52 10.5 -86.5t28.5 -57.5q29 -32 63.5 -42t63.5 -10t59.5 9t56.5 35
q12 12 22.5 25.5t18 32.5t12 44.5t4.5 61.5v289h70v-547z" />
    <glyph glyph-name="udieresis" unicode="&#xfc;" horiz-adv-x="608" 
d="M415 765v-126h-74v126h74zM267 765v-126h-74v126h74zM541 0h-66v85h-2q-8 -15 -21.5 -32.5t-35 -32t-51 -24t-67.5 -9.5q-41 0 -72 8.5t-53.5 21t-38 27t-24.5 25.5q-29 36 -38.5 84t-9.5 92v302h70v-301q0 -52 10.5 -86.5t28.5 -57.5q29 -32 63.5 -42t63.5 -10t59.5 9
t56.5 35q12 12 22.5 25.5t18 32.5t12 44.5t4.5 61.5v289h70v-547z" />
    <glyph glyph-name="yacute" unicode="&#xfd;" horiz-adv-x="536" 
d="M378 786l32 -60l-198 -107l-33 58zM228 18l-213 529h74l174 -436l186 436h74l-317 -739h-73z" />
    <glyph glyph-name="thorn" unicode="&#xfe;" horiz-adv-x="682" 
d="M573 272q0 52 -18 94t-49 71t-71.5 45t-85.5 16q-47 0 -87.5 -18.5t-69.5 -49t-45.5 -71.5t-16.5 -86q0 -48 17.5 -89t47.5 -70.5t70 -46.5t84 -17q50 0 91.5 17.5t71 47.5t45.5 70.5t16 86.5zM64 740h70v-289h2q23 34 51 55.5t56.5 33.5t56 16.5t49.5 4.5
q67 0 121.5 -24t92.5 -64t59 -91.5t21 -106.5q0 -59 -22 -111.5t-61 -91.5t-93 -62t-118 -23q-21 0 -48.5 4.5t-56.5 16.5t-57 33.5t-51 54.5h-2v-288h-70v932z" />
    <glyph glyph-name="ydieresis" unicode="&#xff;" horiz-adv-x="536" 
d="M379 765v-126h-74v126h74zM231 765v-126h-74v126h74zM228 18l-213 529h74l174 -436l186 436h74l-317 -739h-73z" />
    <glyph glyph-name="dotlessi" unicode="&#x131;" horiz-adv-x="200" 
d="M65 547h70v-547h-70v547z" />
    <glyph glyph-name="Lslash" unicode="&#x141;" horiz-adv-x="517" 
d="M59 334l78 56v350h74v-296l153 111v-77l-153 -111v-300h306v-67h-380v313l-78 -56v77z" />
    <glyph glyph-name="lslash" unicode="&#x142;" horiz-adv-x="300" 
d="M43 283v71l70 51v335h70v-284l76 55v-70l-76 -55v-386h-70v335z" />
    <glyph glyph-name="OE" unicode="&#x152;" horiz-adv-x="1194" 
d="M119 374q0 -75 27 -134.5t71.5 -100.5t100.5 -63t113 -22q61 0 119 22.5t103 64t72 100t27 130.5q0 64 -24 121t-66.5 100t-100.5 68.5t-125 25.5q-68 0 -126 -25t-100.5 -67.5t-66.5 -99t-24 -120.5zM1142 740v-67h-317v-267h306v-67h-306v-272h317v-67h-391v151h-2
q-21 -38 -54.5 -68.5t-75 -51.5t-87.5 -32.5t-91 -11.5q-80 0 -152 27.5t-126 78t-86 121.5t-32 157q0 83 31.5 153t84.5 121t123 79.5t148 28.5q45 0 92.5 -11t90.5 -31.5t78 -50t56 -67.5h2v147h391z" />
    <glyph glyph-name="oe" unicode="&#x153;" horiz-adv-x="1137" 
d="M1034 311q-8 48 -30 83.5t-51.5 58.5t-63.5 34t-67 11q-32 0 -66.5 -11t-64.5 -34t-52 -58.5t-30 -83.5h425zM320 50q42 0 81.5 16.5t69.5 46t48 70t18 88.5q0 54 -20 96.5t-51 71.5t-70 44t-76 15q-38 0 -76 -15t-69.5 -44t-51 -71.5t-19.5 -96.5q0 -48 18 -88.5t48 -70
t69 -46t81 -16.5zM34 270q0 65 24.5 118.5t64 92t91 59.5t105.5 21q41 0 79 -11.5t70 -31.5t58 -48t44 -61q18 33 43.5 61t58 48t70 31t78.5 12q44 0 82 -12.5t68.5 -32.5t53.5 -45t38 -50q24 -39 33.5 -78t9.5 -75q0 -5 -0.5 -10t-0.5 -10h-497q2 -40 20.5 -76t47.5 -63
t66.5 -43t78.5 -16q36 1 67.5 11.5t57 28t43 40.5t26.5 49h74q-14 -41 -40 -76t-61.5 -61t-77.5 -40.5t-88 -14.5q-41 0 -78.5 11t-70 30.5t-59.5 47.5t-45 62q-18 -33 -43.5 -60.5t-57.5 -48t-69.5 -31.5t-78.5 -11q-60 0 -112 23.5t-90.5 62.5t-60.5 90t-22 107z" />
    <glyph glyph-name="Scaron" unicode="&#x160;" horiz-adv-x="498" 
d="M158 927l86 -73l88 73h89l-143 -125h-67l-145 125h92zM96 207q3 -70 44 -111.5t110 -41.5q29 0 56 10.5t47.5 30t33 46.5t12.5 60q0 43 -19 71t-45 45.5t-54 26.5t-47 15q-25 7 -58 18t-63 32t-50.5 55.5t-20.5 89.5q0 43 16 79.5t44 63t66 41.5t82 15q45 0 83 -16
t65 -44t42 -64.5t15 -76.5h-74q0 28 -10.5 52.5t-28.5 42.5t-42 28.5t-50 10.5q-32 0 -57 -11t-42 -29.5t-26 -41.5t-9 -47q0 -34 14 -56t38 -37t56 -25.5t68 -20.5q67 -18 104 -50t54 -65.5t20 -61t3 -36.5v-1q0 -43 -16.5 -82t-46 -69t-70.5 -48t-90 -18q-36 0 -75.5 11.5
t-73 37.5t-56 68t-23.5 103h74z" />
    <glyph glyph-name="scaron" unicode="&#x161;" horiz-adv-x="388" 
d="M103 764l86 -73l88 73h89l-143 -125h-67l-145 125h92zM94 162q1 -39 13 -61.5t27.5 -33.5t32 -14t25.5 -3q50 0 76 26.5t26 71.5q0 28 -11.5 46t-28 30t-35.5 19.5t-34 13.5q-21 7 -46.5 17t-47 27.5t-36.5 43t-15 64.5q0 29 10 56.5t30 48.5t49 34t67 13q30 0 57.5 -11
t47.5 -30.5t32 -46.5t12 -59v-2h-70q-2 25 -10.5 41.5t-20.5 26.5t-25.5 14t-25.5 4q-21 0 -36.5 -7.5t-26 -19.5t-15.5 -26.5t-5 -28.5q0 -22 9.5 -37t24.5 -25.5t32 -17t32 -11.5q24 -8 51.5 -19.5t50.5 -30.5t38.5 -48t15.5 -71v-2q0 -35 -10.5 -65.5t-32 -53t-54 -35.5
t-75.5 -13q-28 0 -58 9.5t-54.5 30t-40 52.5t-15.5 77v6h70z" />
    <glyph glyph-name="Ydieresis" unicode="&#x178;" horiz-adv-x="592" 
d="M407 928v-126h-74v126h74zM259 928v-126h-74v126h74zM258 247l-257 493h82l211 -415l217 415h81l-260 -493v-247h-74v247z" />
    <glyph glyph-name="Zcaron" unicode="&#x17d;" horiz-adv-x="480" 
d="M149 927l86 -73l88 73h89l-143 -125h-67l-145 125h92zM12 67l364 606h-353v67h436v-67l-363 -606h374v-67h-458v67z" />
    <glyph glyph-name="zcaron" unicode="&#x17e;" horiz-adv-x="425" 
d="M122 764l86 -73l88 73h89l-143 -125h-67l-145 125h92zM10 61l303 423h-293v63h377v-63l-300 -421h318v-63h-405v61z" />
    <glyph glyph-name="florin" unicode="&#x192;" 
d="M476 584l-12 -67h-112l-81 -431q-6 -36 -11.5 -62.5t-13 -47.5t-18.5 -38t-29 -35q-20 -20 -44 -31.5t-46.5 -17t-40 -6.5t-24.5 -1q-23 0 -36.5 2.5t-19.5 4.5l13 64q8 -2 20.5 -4t29.5 -2q41 0 67 13t42 36.5t25 57t17 74.5l81 424h-114l13 67h112l4 22q8 42 18 70.5
t20.5 46.5t20.5 28l16 16q21 19 41 29.5t37.5 15t29.5 5.5t16 1h6q4 0 15 -2l-11 -67q-5 1 -8 1h-7q-36 0 -58.5 -16t-36 -38.5t-20 -47t-9.5 -42.5l-4 -22h112z" />
    <glyph glyph-name="circumflex" unicode="&#x2c6;" horiz-adv-x="502" 
d="M219 764h66l143 -125h-89l-86 73l-88 -73h-91z" />
    <glyph glyph-name="caron" unicode="&#x2c7;" horiz-adv-x="502" 
d="M160 764l86 -73l88 73h89l-143 -125h-67l-145 125h92z" />
    <glyph glyph-name="breve" unicode="&#x2d8;" horiz-adv-x="453" 
d="M117 754q12 -17 29.5 -26.5t34 -14t29 -5t16.5 -0.5t17 0.5t29.5 5t34 14t29.5 26.5h65q-12 -33 -33 -53.5t-45.5 -31.5t-50 -14.5t-46.5 -3.5q-20 0 -44.5 3.5t-49.5 14t-46.5 31t-33.5 54.5h65z" />
    <glyph glyph-name="dotaccent" unicode="&#x2d9;" horiz-adv-x="222" 
d="M148 765v-126h-74v126h74z" />
    <glyph glyph-name="ring" unicode="&#x2da;" horiz-adv-x="332" 
d="M114 703q0 -21 15 -36t36 -15q22 0 37 15t15 36q0 22 -15 37t-37 15q-20 0 -35.5 -15t-15.5 -37zM62 703q0 21 8 40t22.5 33.5t33 22.5t39.5 8q44 0 74 -30t30 -74q0 -21 -8 -40t-22.5 -33t-33.5 -22t-40 -8t-39.5 8t-33 22t-22.5 33t-8 40z" />
    <glyph glyph-name="ogonek" unicode="&#x2db;" horiz-adv-x="302" 
d="M197 0q-38 -29 -56.5 -51t-18.5 -47q0 -14 6 -23.5t15 -15.5t19 -8.5t18 -2.5q23 0 48 10v-44q-9 -3 -21 -6t-30 -3q-27 0 -46.5 8t-32.5 21t-19 29t-6 32q0 21 8 37.5t19.5 28.5t23.5 20.5t21 14.5h52z" />
    <glyph glyph-name="tilde" unicode="&#x2dc;" horiz-adv-x="439" 
d="M392 690q-24 -18 -49.5 -28.5t-48.5 -10.5q-25 0 -45.5 7.5t-34.5 13.5q-23 11 -36 15.5t-29 4.5q-18 0 -35.5 -8.5t-31.5 -21.5l-35 50q45 42 104 42q26 0 43.5 -6.5t36.5 -15.5q8 -3 26.5 -11t35.5 -8q16 0 28 6t35 20z" />
    <glyph glyph-name="hungarumlaut" unicode="&#x2dd;" horiz-adv-x="552" 
d="M446 786l40 -46l-164 -135l-38 46zM270 786l41 -46l-164 -135l-38 46z" />
    <glyph glyph-name="endash" unicode="&#x2013;" horiz-adv-x="500" 
d="M465 315v-67h-430v67h430z" />
    <glyph glyph-name="emdash" unicode="&#x2014;" horiz-adv-x="1000" 
d="M965 315v-67h-930v67h930z" />
    <glyph glyph-name="quoteleft" unicode="&#x2018;" horiz-adv-x="351" 
d="M183 546l-88 194h74l88 -194h-74z" />
    <glyph glyph-name="quoteright" unicode="&#x2019;" horiz-adv-x="351" 
d="M94 546l88 194h74l-88 -194h-74z" />
    <glyph glyph-name="quotesinglbase" unicode="&#x201a;" horiz-adv-x="354" 
d="M89 -68l88 194h74l-88 -194h-74z" />
    <glyph glyph-name="quotedblleft" unicode="&#x201c;" horiz-adv-x="502" 
d="M185 546l-88 194h74l88 -194h-74zM332 546l-87 194h73l88 -194h-74z" />
    <glyph glyph-name="quotedblright" unicode="&#x201d;" horiz-adv-x="484" 
d="M243 546l88 194h74l-88 -194h-74zM96 546l88 194h73l-87 -194h-74z" />
    <glyph glyph-name="quotedblbase" unicode="&#x201e;" horiz-adv-x="502" 
d="M325 126h74l-88 -194h-74zM177 126h74l-88 -194h-74z" />
    <glyph glyph-name="dagger" unicode="&#x2020;" horiz-adv-x="553" 
d="M313 539h180v-67h-180v-605h-74v605h-180v67h180v201h74v-201z" />
    <glyph glyph-name="daggerdbl" unicode="&#x2021;" horiz-adv-x="553" 
d="M313 539h180v-67h-180v-337h180v-67h-180v-201h-74v201h-180v67h180v337h-180v67h180v201h74v-201z" />
    <glyph glyph-name="bullet" unicode="&#x2022;" horiz-adv-x="606" 
d="M304 532q31 0 58.5 -12.5t48 -33.5t32.5 -49t12 -60t-12 -60.5t-33 -49.5t-48.5 -33t-58.5 -12q-32 0 -60 12.5t-48.5 33.5t-32.5 49t-12 60q0 31 11.5 59t32 49.5t49 34t61.5 12.5z" />
    <glyph glyph-name="ellipsis" unicode="&#x2026;" horiz-adv-x="1000" 
d="M796 126h74v-126h-74v126zM463 126h74v-126h-74v126zM130 126h74v-126h-74v126z" />
    <glyph glyph-name="perthousand" unicode="&#x2030;" horiz-adv-x="1174" 
d="M210 0h-68l424 740h68zM85 572q0 -26 9.5 -48t25.5 -39t38 -26.5t48 -9.5q25 0 47.5 9.5t38.5 26.5t25.5 39t9.5 48q0 25 -9.5 47.5t-25.5 39.5t-38.5 26.5t-47.5 9.5q-26 0 -48 -9.5t-38 -26.5t-25.5 -39.5t-9.5 -47.5zM25 572q0 37 14.5 69.5t39 57t57.5 38.5t70 14
t70 -14t57.5 -38.5t39 -57t14.5 -69.5t-14.5 -69.5t-39 -57t-57.5 -38.5t-70 -14t-70 14t-57.5 38.5t-39 57t-14.5 69.5zM846 166q0 -26 9.5 -48t25.5 -39t38 -26.5t48 -9.5q25 0 47.5 9.5t38.5 26.5t25.5 39t9.5 48q0 25 -9.5 47.5t-25.5 39.5t-38.5 26.5t-47.5 9.5
q-26 0 -48 -9.5t-38 -26.5t-25.5 -39.5t-9.5 -47.5zM786 166q0 37 14.5 69.5t39 57t57.5 38.5t70 14t70 -14t57.5 -38.5t39 -57t14.5 -69.5t-14.5 -69.5t-39 -57t-57.5 -38.5t-70 -14t-70 14t-57.5 38.5t-39 57t-14.5 69.5zM395 166q0 37 14.5 69.5t39 57t57.5 38.5t70 14
t70 -14t57.5 -38.5t39 -57t14.5 -69.5t-14.5 -69.5t-39 -57t-57.5 -38.5t-70 -14t-70 14t-57.5 38.5t-39 57t-14.5 69.5zM455 166q0 -26 9.5 -48t25.5 -39t38 -26.5t48 -9.5q25 0 47.5 9.5t38.5 26.5t25.5 39t9.5 48q0 25 -9.5 47.5t-25.5 39.5t-38.5 26.5t-47.5 9.5
q-26 0 -48 -9.5t-38 -26.5t-25.5 -39.5t-9.5 -47.5z" />
    <glyph glyph-name="guilsinglleft" unicode="&#x2039;" horiz-adv-x="251" 
d="M40 282l113 199l59 -31l-94 -168l94 -168l-59 -33z" />
    <glyph glyph-name="guilsinglright" unicode="&#x203a;" horiz-adv-x="251" 
d="M39 114l94 168l-94 168l58 31l114 -199l-114 -201z" />
    <glyph glyph-name="fraction" unicode="&#x2044;" horiz-adv-x="166" 
d="M220 740h60l-333 -740h-60z" />
    <glyph glyph-name="fraction" unicode="&#x2215;" horiz-adv-x="166" 
d="M220 740h60l-333 -740h-60z" />
    <glyph glyph-name="Euro" unicode="&#x20ac;" 
d="M529 587q-11 18 -27.5 36t-38.5 32t-50 22.5t-62 8.5q-48 0 -82 -20.5t-55.5 -52t-31.5 -70.5t-10 -75h311l-25 -63h-287v-70h259l-25 -63h-232q0 -15 2.5 -34t7 -38.5t11 -38t15.5 -31.5q28 -42 66 -59t76 -17q21 0 45 5t46 14t40 22.5t28 30.5v-87q-5 -6 -17.5 -14.5
t-32 -17t-47 -14.5t-62.5 -6q-32 0 -63.5 7t-60 22.5t-53.5 40.5t-43 61q-17 32 -23.5 72t-8.5 82h-91l25 63h64v70h-89l25 63h65q0 53 14.5 104.5t45.5 91.5t79 64.5t114 24.5q38 0 71 -9t59.5 -22.5t46 -30.5t30.5 -32z" />
    <glyph glyph-name="trademark" unicode="&#x2122;" horiz-adv-x="1000" 
d="M331 740h78l164 -365l164 365h79v-444h-55v372h-2l-163 -372h-46l-162 371h-2v-371h-55v444zM114 693h-105v47h265v-47h-105v-397h-55v397z" />
    <glyph glyph-name="minus" unicode="&#x2212;" horiz-adv-x="606" 
d="M51 287h504v-68h-504v68z" />
    <glyph glyph-name="fi" unicode="&#xfb01;" horiz-adv-x="487" 
d="M352 740h70v-126h-70v126zM174 484v-484h-70v484h-85v63h85q1 19 2.5 41.5t8 45t19.5 44t36 38t58 26.5t86 11v-65q-52 0 -80 -14t-41.5 -35t-16 -45t-2.5 -43v-4h248v-547h-70v484h-178z" />
    <glyph glyph-name="fl" unicode="&#xfb02;" horiz-adv-x="485" 
d="M174 484v-484h-70v484h-85v63h85q1 19 2.5 41.5t8 45t19.5 44t36 38t58 26.5t86 11v-65q-52 0 -80 -14t-41.5 -35t-16 -45t-2.5 -43v-4h176v193h70v-740h-70v484h-176z" />
    <glyph glyph-name="nonbreakingspace" horiz-adv-x="277" 
 />
    </font>
</defs>
</svg>
